<?xml version="1.0" standalone="no"?>
<!DOCTYPE svg PUBLIC "-//W3C//DTD SVG 1.1//EN" "http://www.w3.org/Graphics/SVG/1.1/DTD/svg11.dtd" >
<svg xmlns="http://www.w3.org/2000/svg" xmlns:xlink="http://www.w3.org/1999/xlink" version="1.1">
<metadata>
Created by FontForge 20170731 at Fri Dec 16 11:14:52 2022
 By Aleksey,,,
Copyright (c) 2017 by Matt Bailey. All rights reserved.
</metadata>
<defs>
<font id="SpartanMB-Thin" horiz-adv-x="532" >
  <font-face 
    font-family="Spartan MB"
    font-weight="250"
    font-stretch="normal"
    units-per-em="2048"
    panose-1="0 0 5 3 8 0 0 2 0 3"
    ascent="1638"
    descent="-410"
    x-height="1049"
    cap-height="1690"
    bbox="-229 -602 2937 2316"
    underline-thickness="102"
    underline-position="-307"
    unicode-range="U+000D-FB04"
  />
<missing-glyph horiz-adv-x="700" 
 />
    <glyph glyph-name="ff" unicode="ff" horiz-adv-x="964" 
d="M141 1049h86v440q0 303 238 303q73 0 129 -31l-25 -41q-44 23 -100 23q-91 0 -137.5 -58t-46.5 -186v-450h340v440q0 303 237 303q95 0 154 -47l-21 -43q-48 41 -129 41q-91 0 -137.5 -58t-46.5 -186v-450h279v-43h-279v-1006h-57v1006h-340v-1006h-58v1006h-86v43z" />
    <glyph glyph-name="fi" unicode="fi" horiz-adv-x="915" 
d="M141 1049h86v440q0 303 238 303q62 0 118 -33.5t83 -93.5l-48 -18q-14 43 -58 69.5t-91 26.5q-91 0 -137.5 -58t-46.5 -186v-450h383v-1049h-58v1006h-325v-1006h-58v1006h-86v43z" />
    <glyph glyph-name="fl" unicode="fl" horiz-adv-x="950" 
d="M670 1761h53v-1761h-53v1761zM139 1049h88v440q0 303 236 303q73 0 129 -31l-25 -41q-44 23 -100 23q-91 0 -137.5 -58t-46.5 -186v-450h278v-43h-278v-1006h-56v1006h-88v43z" />
    <glyph glyph-name="ffi" unicode="ffi" horiz-adv-x="1310" 
d="M141 1049h86v440q0 303 238 303q73 0 129 -31l-25 -41q-44 23 -100 23q-91 0 -137.5 -58t-46.5 -186v-450h340v440q0 303 237 303q62 0 118 -33.5t83 -93.5l-47 -18q-14 42 -58.5 69t-91.5 27q-91 0 -137.5 -58t-46.5 -186v-450h381v-1049h-57v1006h-324v-1006h-57v1006
h-340v-1006h-58v1006h-86v43z" />
    <glyph glyph-name="ffl" unicode="ffl" horiz-adv-x="1351" 
d="M141 1049h86v440q0 303 238 303q73 0 129 -31l-25 -41q-44 23 -100 23q-91 0 -137.5 -58t-46.5 -186v-450h340v440q0 303 237 303q73 0 129 -31l-24 -41q-44 23 -101 23q-91 0 -137.5 -58t-46.5 -186v-450h279v-43h-279v-1006h-57v1006h-340v-1006h-58v1006h-86v43z
M1067 1761h57v-1761h-57v1761z" />
    <glyph glyph-name="ft" unicode="ft" horiz-adv-x="1044" 
d="M141 1049h86v440q0 303 238 303q73 0 129 -31l-25 -41q-44 23 -100 23q-91 0 -137.5 -58t-46.5 -186v-450h385v391h57v-391h279v-43h-279v-779q0 -107 34.5 -159t115.5 -52q32 0 60.5 9t40.5 17l13 9l15 -45q-5 -4 -15 -10.5t-45.5 -17.5t-77.5 -11q-62 0 -103.5 21.5
t-61 61.5t-26.5 81t-7 96v779h-385v-1006h-58v1006h-86v43z" />
    <glyph glyph-name="fj" unicode="fj" horiz-adv-x="913" 
d="M141 1049h86v440q0 303 238 303q62 0 118 -33.5t83 -93.5l-48 -18q-14 43 -58 69.5t-91 26.5q-91 0 -137.5 -58t-46.5 -186v-450h381v-1309q0 -303 -238 -303q-99 0 -154 47l17 45q46 -43 133 -43q184 0 184 244v1276h-323v-1006h-58v1006h-86v43z" />
    <glyph glyph-name="fft" unicode="fft" horiz-adv-x="1441" 
d="M141 1049h86v440q0 303 238 303q73 0 129 -31l-25 -41q-44 23 -100 23q-91 0 -137.5 -58t-46.5 -186v-450h340v440q0 303 237 303q73 0 129 -31l-24 -41q-44 23 -101 23q-91 0 -137.5 -58t-46.5 -186v-450h385v391h57v-391h279v-43h-279v-779q0 -107 34.5 -159t115.5 -52
q32 0 61 9t41 17l13 9l14 -45q-5 -4 -14.5 -10.5t-45 -17.5t-77.5 -11q-50 0 -87 15t-58 38.5t-33.5 59.5t-16.5 70t-4 77v779h-385v-1006h-57v1006h-340v-1006h-58v1006h-86v43z" />
    <glyph glyph-name="ffj" unicode="ffj" horiz-adv-x="1310" 
d="M141 1049h86v440q0 303 238 303q73 0 129 -31l-25 -41q-44 23 -100 23q-91 0 -137.5 -58t-46.5 -186v-450h340v440q0 303 237 303q62 0 118 -33.5t83 -93.5l-47 -18q-14 42 -58.5 69t-91.5 27q-91 0 -137.5 -58t-46.5 -186v-450h381v-1309q0 -303 -238 -303
q-98 0 -153 47l16 45q46 -43 133 -43q185 0 185 244v1276h-324v-1006h-57v1006h-340v-1006h-58v1006h-86v43z" />
    <glyph glyph-name=".notdef" horiz-adv-x="700" 
 />
    <glyph glyph-name=".null" horiz-adv-x="0" 
 />
    <glyph glyph-name="nonmarkingreturn" horiz-adv-x="682" 
 />
    <glyph glyph-name="NULL" horiz-adv-x="0" 
 />
    <glyph glyph-name="NULL" horiz-adv-x="0" 
 />
    <glyph glyph-name="CR" unicode="&#xd;" horiz-adv-x="512" 
 />
    <glyph glyph-name="space" unicode=" " horiz-adv-x="512" 
 />
    <glyph glyph-name="exclam" unicode="!" horiz-adv-x="573" 
d="M287 66q20 0 34.5 -15t14.5 -35t-14.5 -34.5t-34.5 -14.5t-34.5 14.5t-14.5 34.5t14.5 35t34.5 15zM260 1761h53v-1417h-53v1417z" />
    <glyph glyph-name="quotedbl" unicode="&#x22;" horiz-adv-x="389" 
d="M86 1690h76l-12 -289h-52zM227 1690h76l-12 -289h-51z" />
    <glyph glyph-name="numbersign" unicode="#" horiz-adv-x="1239" 
d="M141 975h260l60 426h39l-60 -426h437l59 426h39l-60 -426h183v-39h-189l-67 -473h256v-39h-260l-60 -424h-39l60 424h-437l-59 -424h-39l60 424h-183v39h189l67 473h-256v39zM805 463l65 473h-436l-67 -473h438z" />
    <glyph glyph-name="dollar" unicode="$" horiz-adv-x="1310" 
d="M137 336l45 22q9 -26 27.5 -60.5t60 -85t93 -91t133 -69.5t174.5 -29q196 0 323 105.5t127 293.5q0 164 -113.5 269t-363.5 181q-210 64 -307.5 166t-97.5 250q0 187 123.5 309.5t306.5 122.5v252h47v-254q131 -11 225.5 -82.5t132.5 -160.5l-47 -25q-34 87 -130 152
t-226 65q-72 0 -134.5 -21.5t-107 -58.5t-76.5 -86t-47.5 -103t-15.5 -110q0 -74 28.5 -133.5t82.5 -103t119.5 -74t152.5 -57.5q259 -79 380.5 -197t121.5 -301q0 -193 -127 -316t-332 -135v-254h-47v252q-102 1 -191.5 33.5t-147 78.5t-102 100.5t-64.5 93t-26 61.5z" />
    <glyph glyph-name="percent" unicode="%" horiz-adv-x="2072" 
d="M119 1317q0 177 115.5 290t289.5 113q172 0 288 -113.5t116 -289.5q0 -177 -116 -290.5t-288 -113.5q-173 0 -289 113.5t-116 290.5zM158 1317q0 -163 103 -267t263 -104q159 0 263 104.5t104 266.5t-104 266.5t-263 104.5q-160 0 -263 -104t-103 -267zM1143 371
q0 176 116.5 289.5t288.5 113.5q174 0 290 -113t116 -290t-116 -290.5t-290 -113.5q-172 0 -288.5 114t-116.5 290zM1182 371q0 -162 103.5 -266.5t262.5 -104.5q160 0 263.5 104.5t103.5 266.5t-103.5 266t-263.5 104q-159 0 -262.5 -104t-103.5 -266zM520 0l983 1690h49
l-983 -1690h-49z" />
    <glyph glyph-name="ampersand" unicode="&#x26;" horiz-adv-x="1503" 
d="M152 416q0 350 401 551q-51 47 -76 71.5t-65.5 70.5t-60.5 82t-36 86t-16 101q0 63 23.5 123.5t66.5 109.5t111 79t151 30t151.5 -30t111.5 -79t66.5 -109.5t23.5 -123.5q0 -67 -17 -121.5t-45 -94.5t-77.5 -78.5t-99.5 -66.5t-126 -65q126 -130 551 -602
q33 40 63.5 83.5t51 77.5t36 62t23.5 44l8 16l43 -19q-67 -147 -190 -303l278 -311h-67q-27 31 -111.5 124.5t-132.5 147.5q-260 -305 -567 -305q-209 0 -341 125.5t-132 323.5zM348 1378q0 -32 7 -63.5t16.5 -57t29 -54.5t33.5 -47.5t40.5 -46.5t40.5 -41.5t44 -41
t41 -37.5q99 47 158 82t107.5 80.5t68.5 99.5t20 127q0 115 -82 203t-221 88t-221 -88t-82 -203zM201 416q0 -177 118 -288.5t306 -111.5q280 0 534 295q-55 60 -159 174.5t-167 184t-134 145.5t-109 115q-100 -48 -173.5 -105t-114 -108t-64.5 -109t-30.5 -101t-6.5 -91z
" />
    <glyph glyph-name="quotesingle" unicode="'" horiz-adv-x="247" 
d="M86 1690h76l-12 -289h-52z" />
    <glyph glyph-name="parenleft" unicode="(" horiz-adv-x="622" 
d="M252 629q0 -183 37 -368t90 -319t106 -241.5t90 -162.5l37 -54l-39 -16q-8 9 -22 27t-54 78t-76.5 127t-81.5 172t-77 214.5t-54 253t-22 289.5t21.5 289t55.5 255t75.5 213.5t82.5 173.5t75 125.5t56 80.5l21 26l39 -16q-15 -20 -39 -57.5t-86 -157.5t-109.5 -246.5
t-86.5 -314.5t-39 -371z" />
    <glyph glyph-name="parenright" unicode=")" horiz-adv-x="622" 
d="M436 629q0 -146 -21.5 -289t-55.5 -254.5t-75.5 -213t-82.5 -173.5t-75 -125.5t-56 -79.5l-21 -26l-39 16q15 20 39 57t86.5 157t110 246.5t86.5 314t39 370.5q0 133 -20 268.5t-51.5 245t-70.5 211.5t-77.5 177t-70 131.5t-51.5 85.5l-20 28l39 16q8 -9 22 -27t54 -78.5
t76.5 -127.5t81.5 -172t77 -215t54 -253.5t22 -289.5z" />
    <glyph glyph-name="asterisk" unicode="*" horiz-adv-x="399" 
d="M186 1761h27v-162l154 50l8 -25l-154 -49l94 -131l-20 -17l-96 132l-95 -132l-20 17l94 131l-153 49l8 25l153 -50v162z" />
    <glyph glyph-name="plus" unicode="+" horiz-adv-x="1282" 
d="M616 1372h50v-500h499v-49h-499v-499h-50v499h-499v49h499v500z" />
    <glyph glyph-name="comma" unicode="," horiz-adv-x="327" 
d="M164 66q20 0 34.5 -15t14.5 -35q0 -140 -76 -206l-10 10q37 55 37 147q-20 0 -34.5 14.5t-14.5 34.5t14.5 35t34.5 15z" />
    <glyph glyph-name="hyphen" unicode="-" horiz-adv-x="950" 
d="M145 618h660v-49h-660v49z" />
    <glyph glyph-name="period" unicode="." horiz-adv-x="327" 
d="M164 66q20 0 34.5 -15t14.5 -35t-14.5 -34.5t-34.5 -14.5t-34.5 14.5t-14.5 34.5t14.5 35t34.5 15z" />
    <glyph glyph-name="slash" unicode="/" horiz-adv-x="884" 
d="M0 -246l844 2007h41l-844 -2007h-41z" />
    <glyph glyph-name="zero" unicode="0" horiz-adv-x="1742" 
d="M184 844q0 172 36.5 316.5t100.5 246.5t151 173.5t187.5 105.5t210.5 34t210.5 -34t187.5 -105.5t151 -173.5t100.5 -246.5t36.5 -316.5t-36.5 -316.5t-100.5 -247t-151 -174t-187.5 -105.5t-210.5 -34t-210.5 34t-187.5 105.5t-151 174t-100.5 247t-36.5 316.5zM238 844
q0 -161 33 -296.5t91.5 -232t138 -163.5t173 -99.5t196.5 -32.5q130 0 243 52.5t200.5 152t138.5 259t51 360.5t-51 360.5t-138.5 259t-200.5 151.5t-243 52q-103 0 -196.5 -32t-173 -99.5t-138 -163.5t-91.5 -231.5t-33 -296.5z" />
    <glyph glyph-name="one" unicode="1" 
d="M129 1690h166v-1690h-57v1632h-109v58z" />
    <glyph glyph-name="two" unicode="2" horiz-adv-x="1515" 
d="M215 1178q0 147 73 272t198 197.5t272 72.5q110 0 210.5 -43t173 -115.5t115.5 -173t43 -210.5q0 -74 -25 -149t-58.5 -139t-110.5 -150.5t-137 -147.5t-185.5 -167t-207.5 -172.5t-248 -199.5h1003v-53h-1147v18q52 41 147.5 116t152 119t144 115t141 118.5t125 114.5
t115.5 118t92.5 114t74.5 117t43.5 113t17.5 115q0 97 -38 186t-102 153t-153 102t-186 38t-186 -38t-153 -102t-102 -153t-38 -186h-64z" />
    <glyph glyph-name="three" unicode="3" horiz-adv-x="1284" 
d="M215 1286q0 122 58.5 222t158.5 156t219 56q181 0 308.5 -128t127.5 -308q0 -148 -87.5 -267t-223.5 -161q146 -33 235 -158t89 -282q0 -94 -30.5 -175t-89 -142.5t-151 -96.5t-208.5 -35q-231 0 -366.5 127.5t-135.5 319.5h59q0 -164 121 -273.5t322 -109.5
q133 0 228 52.5t140 138t45 194.5q0 114 -57 210t-151 150.5t-201 54.5l-56 -6v60h45q171 0 291.5 116t120.5 285q0 156 -110.5 266.5t-266.5 110.5t-266.5 -110.5t-110.5 -266.5h-57z" />
    <glyph glyph-name="four" unicode="4" horiz-adv-x="1103" 
d="M10 641v51l789 998h57v-998h197v-51h-197v-641h-57v641h-789zM76 692h723v914z" />
    <glyph glyph-name="five" unicode="5" horiz-adv-x="1445" 
d="M328 1690h862v-52h-821l-107 -686q178 166 432 166q168 0 304 -69.5t218 -207t82 -319.5q0 -250 -157.5 -402.5t-444.5 -152.5q-114 0 -214.5 32.5t-171 87t-118.5 117t-73 130.5l49 24q22 -62 66.5 -120.5t109.5 -109.5t157.5 -81.5t196.5 -30.5q263 0 406 139.5
t143 368.5q0 166 -75 291.5t-199 189.5t-277 64q-286 0 -503 -252z" />
    <glyph glyph-name="six" unicode="6" horiz-adv-x="1431" 
d="M141 537q0 110 43.5 219t102.5 178l635 756h71l-536 -641q128 73 254 73q160 0 292.5 -75t209.5 -209.5t77 -300.5q0 -246 -164.5 -408t-414.5 -162q-248 0 -409 161.5t-161 408.5zM195 539q0 -225 145.5 -372t370.5 -147q227 0 376.5 147.5t149.5 371.5
q0 151 -69.5 272.5t-190 189.5t-266.5 68q-139 0 -258 -72t-188.5 -194.5t-69.5 -263.5z" />
    <glyph glyph-name="seven" unicode="7" horiz-adv-x="1075" 
d="M115 1690h960v-27l-893 -1663h-67l878 1638h-878v52z" />
    <glyph glyph-name="eight" unicode="8" horiz-adv-x="1273" 
d="M203 1290q0 188 125.5 309t308.5 121t308.5 -121t125.5 -309q0 -136 -73.5 -242t-192.5 -155q145 -51 236.5 -170.5t91.5 -278.5q0 -206 -141.5 -341.5t-354.5 -135.5t-354.5 135.5t-141.5 341.5q0 159 91.5 278.5t236.5 170.5q-119 49 -192.5 155t-73.5 242zM252 1294
q0 -165 110 -273t275 -108t275 108t110 273q0 166 -111.5 274.5t-273.5 108.5t-273.5 -108.5t-111.5 -274.5zM197 442q0 -185 125 -305.5t315 -120.5t315 120.5t125 305.5t-127 304.5t-313 119.5t-313 -119.5t-127 -304.5z" />
    <glyph glyph-name="nine" unicode="9" horiz-adv-x="1431" 
d="M141 1151q0 162 75 292t207.5 203.5t297.5 73.5q248 0 408.5 -161t160.5 -408q0 -111 -43.5 -219.5t-101.5 -175.5l-635 -756h-72l537 639q-126 -72 -254 -72q-160 0 -293 75t-210 209t-77 300zM195 1149q0 -227 151.5 -377.5t372.5 -150.5q140 0 259.5 71.5t189 193.5
t69.5 263q0 225 -145.5 371.5t-372.5 146.5q-226 0 -375 -147t-149 -371z" />
    <glyph glyph-name="colon" unicode=":" horiz-adv-x="327" 
d="M164 66q20 0 34.5 -15t14.5 -35t-14.5 -34.5t-34.5 -14.5t-34.5 14.5t-14.5 34.5t14.5 35t34.5 15zM164 1135q20 0 34.5 -15t14.5 -35t-14.5 -34.5t-34.5 -14.5t-34.5 14.5t-14.5 34.5t14.5 35t34.5 15z" />
    <glyph glyph-name="semicolon" unicode=";" horiz-adv-x="327" 
d="M164 66q20 0 34.5 -15t14.5 -35q0 -140 -76 -206l-10 10q37 55 37 147q-20 0 -34.5 14.5t-14.5 34.5t14.5 35t34.5 15zM164 1135q20 0 34.5 -15t14.5 -35t-14.5 -34.5t-34.5 -14.5t-34.5 14.5t-14.5 34.5t14.5 35t34.5 15z" />
    <glyph glyph-name="less" unicode="&#x3c;" horiz-adv-x="1228" 
d="M10 870l1120 557v-55l-1058 -520l1058 -520v-56l-1120 558v36z" />
    <glyph glyph-name="equal" unicode="=" horiz-adv-x="1245" 
d="M98 1061h1049v-49h-1049v49zM98 686h1049v-49h-1049v49z" />
    <glyph glyph-name="greater" unicode="&#x3e;" horiz-adv-x="1228" 
d="M1219 870v-36l-1121 -558v56l1059 520l-1059 520v55z" />
    <glyph glyph-name="question" unicode="?" horiz-adv-x="1177" 
d="M74 1212q0 231 135 369.5t360 138.5q144 0 259.5 -68t178 -181.5t62.5 -249.5q0 -102 -34.5 -194t-98.5 -164t-165.5 -114t-225.5 -42v-328h-51v383q24 -4 49 -4q219 0 344 128.5t125 334.5q0 202 -122.5 322t-320.5 120q-200 0 -319 -123t-119 -328h-57zM518 66
q20 0 34.5 -15t14.5 -35t-14.5 -34.5t-34.5 -14.5t-34.5 14.5t-14.5 34.5t14.5 35t34.5 15z" />
    <glyph glyph-name="at" unicode="@" horiz-adv-x="2007" 
d="M152 844q0 182 68 345.5t183.5 279.5t272.5 183.5t330 67.5q116 0 225.5 -30.5t203 -86t171.5 -135.5t133 -176t85.5 -211t30.5 -237q0 -94 -10 -167t-33 -132.5t-65 -91t-102 -31.5q-90 0 -141 44t-70 103q-64 -139 -188 -220t-281 -81q-110 0 -207.5 41.5t-167.5 114
t-111 176.5t-41 225t41 225.5t111 177.5t167.5 114.5t207.5 41.5q157 0 281 -81t188 -220v269h57v-682q0 -97 41 -147t113 -50q75 0 112 82.5t37 288.5q0 170 -62.5 323t-168.5 262t-252 172.5t-307 63.5q-159 0 -304.5 -64t-252.5 -172.5t-170.5 -261.5t-63.5 -323
q0 -172 59 -323.5t162.5 -261t251.5 -173t318 -63.5q201 0 368 88.5t275 244.5l53 -26q-116 -169 -297 -266t-397 -97q-185 0 -344.5 68t-271 185t-175 279t-63.5 345zM494 825q0 -220 134 -361.5t339 -141.5q206 0 339.5 141t133.5 362q0 222 -133.5 364t-339.5 142
q-205 0 -339 -142t-134 -364z" />
    <glyph glyph-name="A" unicode="A" horiz-adv-x="1368" 
d="M657 1690h54l657 -1690h-61l-242 625h-762l-242 -625h-61zM684 1620l-362 -944h725z" />
    <glyph glyph-name="B" unicode="B" horiz-adv-x="1312" 
d="M238 1690h286q248 0 384 -111.5t136 -316.5q0 -142 -66.5 -241.5t-191.5 -146.5q195 -25 301.5 -138t106.5 -296q0 -206 -137 -323t-383 -117h-436v1690zM295 1640v-753h229q223 2 345 98t122 277q0 182 -122 279t-345 99h-229zM295 834v-781h379q221 0 344 102t123 285
q0 185 -123 289.5t-344 104.5h-379z" />
    <glyph glyph-name="C" unicode="C" horiz-adv-x="1691" 
d="M152 844q0 147 41.5 280.5t119.5 241.5t184.5 187.5t242.5 123t288 43.5q312 0 545 -182l-35 -45q-207 170 -510 170q-176 0 -328 -63.5t-258 -173t-166.5 -260.5t-60.5 -322t60.5 -322t166.5 -260.5t258 -173t328 -63.5q303 0 510 170l35 -45q-234 -183 -545 -183
q-189 0 -353 68t-278.5 185t-179.5 279t-65 345z" />
    <glyph glyph-name="D" unicode="D" horiz-adv-x="1574" 
d="M238 1690h333q172 0 328 -63.5t271.5 -173.5t184 -268.5t68.5 -338.5q0 -181 -68 -340t-183.5 -269t-271.5 -173.5t-329 -63.5h-333v1690zM295 1638v-1587h276q160 0 306 60t254 163.5t172.5 252.5t64.5 319q0 169 -64.5 317.5t-173 252t-254.5 163t-305 59.5h-276z" />
    <glyph glyph-name="E" unicode="E" horiz-adv-x="1191" 
d="M238 1690h802v-52h-745v-766h721v-51h-721v-770h745v-51h-802v1690z" />
    <glyph glyph-name="F" unicode="F" horiz-adv-x="1200" 
d="M238 1690h802v-52h-745v-766h698v-51h-698v-821h-57v1690z" />
    <glyph glyph-name="G" unicode="G" horiz-adv-x="1896" 
d="M152 842q0 180 62.5 342t170.5 280t261.5 187t328.5 69q415 0 653 -288l-39 -41q-106 130 -261 204t-353 74q-216 0 -391.5 -110.5t-274 -300t-98.5 -416.5q0 -168 60.5 -320.5t163 -262.5t244 -175.5t296.5 -65.5q140 0 271 47t231 129.5t160.5 204.5t60.5 263v77h-723
v54h782v-93q0 -142 -42.5 -262t-116 -206t-173 -146.5t-213.5 -89.5t-237 -29q-168 0 -320 69.5t-262.5 186.5t-175.5 279t-65 340z" />
    <glyph glyph-name="H" unicode="H" horiz-adv-x="1675" 
d="M238 1690h57v-818h1085v818h58v-1690h-58v821h-1085v-821h-57v1690z" />
    <glyph glyph-name="I" unicode="I" 
d="M238 1690h57v-1690h-57v1690z" />
    <glyph glyph-name="J" unicode="J" horiz-adv-x="1124" 
d="M829 1690h58v-1215q0 -248 -136.5 -378t-392.5 -130q-68 0 -133.5 16.5t-110.5 40.5t-81 48t-53 40l-17 17l25 66q6 -7 18 -19t51 -42t80 -53t101.5 -42t119.5 -19q471 0 471 480v1190z" />
    <glyph glyph-name="K" unicode="K" horiz-adv-x="1282" 
d="M238 1690h57v-854l846 854h69l-811 -820l883 -870h-80l-842 829l-65 -63v-766h-57v1690z" />
    <glyph glyph-name="L" unicode="L" horiz-adv-x="1124" 
d="M238 1690h57v-1639h762v-51h-819v1690z" />
    <glyph glyph-name="M" unicode="M" horiz-adv-x="1945" 
d="M362 1690h62l549 -1471l549 1471h61l248 -1690h-57l-234 1571l-536 -1434h-62l-536 1434l-234 -1571h-57z" />
    <glyph glyph-name="N" unicode="N" horiz-adv-x="1597" 
d="M238 1690h57l1008 -1586v1586h57v-1690h-57l-1008 1583v-1583h-57v1690z" />
    <glyph glyph-name="O" unicode="O" horiz-adv-x="2007" 
d="M213 844q0 -170 63.5 -323t170.5 -261.5t252.5 -172.5t304.5 -64t304.5 64t252 172.5t170 261.5t63.5 323t-63.5 323t-170 261.5t-252 172.5t-304.5 64t-304.5 -64t-252.5 -172.5t-170.5 -261.5t-63.5 -323zM152 844q0 182 68 345.5t183 279t272 183.5t329 68t329 -68
t271.5 -183.5t182.5 -279t68 -345.5t-68 -345.5t-182.5 -279.5t-271.5 -184t-329 -68t-329 68t-272 184t-183 279.5t-68 345.5z" />
    <glyph glyph-name="P" unicode="P" horiz-adv-x="1273" 
d="M238 1690h362q246 0 384 -124.5t138 -334.5q0 -211 -139.5 -344t-382.5 -133h-305v-754h-57v1690zM295 1640v-831h305q218 0 343.5 117.5t125.5 304.5t-124.5 298t-344.5 111h-305z" />
    <glyph glyph-name="Q" unicode="Q" horiz-adv-x="2007" 
d="M152 844q0 182 68 345.5t183 279t272 183.5t329 68q173 0 330 -67.5t271.5 -183.5t182 -279.5t67.5 -345.5q0 -204 -80.5 -381t-222.5 -299q178 -110 334 -166l-26 -53q-171 68 -351 186q-219 -164 -505 -164q-184 0 -343.5 68t-270.5 185t-174.5 279t-63.5 345zM213 844
q0 -172 59 -323.5t162.5 -261t251.5 -173t318 -63.5q252 0 454 143q-191 133 -342 295l29 28q161 -161 356 -290q137 114 214 282t77 363q0 227 -105.5 416t-286.5 297t-396 108q-159 0 -304.5 -64t-252.5 -172.5t-170.5 -261.5t-63.5 -323z" />
    <glyph glyph-name="R" unicode="R" horiz-adv-x="1269" 
d="M238 1690h362q246 0 384 -124.5t138 -334.5q0 -205 -132.5 -337.5t-364.5 -139.5l567 -754h-74l-567 754h-256v-754h-57v1690zM295 1640v-831h305q218 0 343.5 117.5t125.5 304.5t-124.5 298t-344.5 111h-305z" />
    <glyph glyph-name="S" unicode="S" horiz-adv-x="1312" 
d="M238 1288q0 187 124.5 309.5t309.5 122.5q148 0 254.5 -74.5t148.5 -172.5l-47 -23q-34 87 -130 152t-226 65q-90 0 -164.5 -33.5t-121 -88t-72 -121t-25.5 -136.5q0 -74 28.5 -134t83.5 -103t119.5 -73.5t151.5 -57.5q260 -79 382 -197.5t122 -302.5
q0 -204 -140.5 -328.5t-363.5 -124.5q-103 0 -193.5 32.5t-148.5 78.5t-102.5 101t-64.5 93t-26 62l45 24q7 -21 22 -49t41.5 -68.5t67 -77.5t90.5 -70t120 -53t149 -20q195 0 322.5 106t127.5 294q0 164 -113.5 269t-363.5 181q-212 65 -309.5 167t-97.5 251z" />
    <glyph glyph-name="T" unicode="T" horiz-adv-x="1187" 
d="M0 1690h1188v-58h-565v-1632h-58v1632h-565v58z" />
    <glyph glyph-name="U" unicode="U" horiz-adv-x="1548" 
d="M221 1690h58v-1082q0 -286 125.5 -434.5t369.5 -148.5t370 148.5t126 434.5v1082h57v-1082q0 -641 -553 -641t-553 641v1082z" />
    <glyph glyph-name="V" unicode="V" horiz-adv-x="1495" 
d="M16 1690h66l666 -1604l665 1604h66l-709 -1690h-45z" />
    <glyph glyph-name="W" unicode="W" horiz-adv-x="2310" 
d="M16 1690h64l479 -1629l571 1629h50l571 -1629l479 1629h64l-510 -1690h-68l-561 1571l-561 -1571h-68z" />
    <glyph glyph-name="X" unicode="X" horiz-adv-x="1404" 
d="M115 1690h71l516 -725l517 725h71l-551 -777l650 -913h-74l-613 862l-612 -862h-74l650 913z" />
    <glyph glyph-name="Y" unicode="Y" horiz-adv-x="1216" 
d="M16 1690h70l522 -899l522 899h70l-563 -969v-721h-57v721z" />
    <glyph glyph-name="Z" unicode="Z" horiz-adv-x="1538" 
d="M217 1690h1219l-1219 -1633h1161v-57h-1276l1219 1632h-1104v58z" />
    <glyph glyph-name="bracketleft" unicode="[" 
d="M238 1761h331v-57h-274v-2179h274v-57h-331v2293z" />
    <glyph glyph-name="backslash" unicode="\" horiz-adv-x="884" 
d="M0 1761h41l844 -1761h-41z" />
    <glyph glyph-name="bracketright" unicode="]" 
d="M-37 1761h332v-2293h-332v57h275v2179h-275v57z" />
    <glyph glyph-name="asciicircum" unicode="^" horiz-adv-x="876" 
d="M0 1239l424 481h29l424 -481h-50l-389 447l-389 -447h-49z" />
    <glyph glyph-name="underscore" unicode="_" horiz-adv-x="1050" 
d="M0 -164h1051v-41h-1051v41z" />
    <glyph glyph-name="grave" unicode="`" horiz-adv-x="512" 
d="M119 1657l43 63l231 -174l-31 -43z" />
    <glyph glyph-name="a" unicode="a" horiz-adv-x="1433" 
d="M154 524q0 161 69.5 289t189.5 198t267 70q157 0 281 -81t188 -220v269h57v-1049h-57v268q-64 -139 -188 -220t-281 -81q-147 0 -267 70t-189.5 198t-69.5 289zM209 524q0 -220 134 -362t339 -142q206 0 339.5 141.5t133.5 362.5q0 222 -133.5 363t-339.5 141
q-205 0 -339 -141.5t-134 -362.5z" />
    <glyph glyph-name="b" unicode="b" horiz-adv-x="1421" 
d="M227 1761h58v-981q64 139 188 220t281 81q147 0 267 -70t189.5 -198t69.5 -289t-69.5 -289t-189.5 -198t-267 -70q-157 0 -281 81t-188 220v-268h-58v1761zM279 524q0 -221 133.5 -362.5t339.5 -141.5q205 0 339 142t134 362q0 221 -134 362.5t-339 141.5
q-206 0 -339.5 -141t-133.5 -363z" />
    <glyph glyph-name="c" unicode="c" horiz-adv-x="1218" 
d="M141 524q0 161 74 289t201.5 198t283.5 70q212 0 363 -123l-35 -38q-135 108 -328 108q-220 0 -362.5 -142t-142.5 -362t142.5 -362t362.5 -142q193 0 326 109l37 -39q-155 -123 -363 -123q-238 0 -398.5 157.5t-160.5 399.5z" />
    <glyph glyph-name="d" unicode="d" horiz-adv-x="1421" 
d="M141 524q0 121 41 225t111 176.5t167.5 114t207.5 41.5q157 0 281 -81t188 -220v983h57v-1763h-57v268q-64 -139 -188 -220t-281 -81q-110 0 -207.5 41.5t-167.5 114t-111 176.5t-41 225zM197 524q0 -220 134 -362t339 -142q206 0 339.5 141.5t133.5 362.5
q0 222 -133.5 363t-339.5 141q-205 0 -339 -141.5t-134 -362.5z" />
    <glyph glyph-name="e" unicode="e" horiz-adv-x="1359" 
d="M141 524q0 152 72.5 280.5t196.5 202.5t270 74t270 -74t196.5 -202.5t72.5 -280.5h-1024q0 -220 142.5 -362t362.5 -142q139 0 252 60t178 166l46 -29q-74 -118 -198.5 -184t-277.5 -66q-156 0 -283.5 70t-201.5 198t-74 289zM197 575h964q-19 193 -156.5 323t-324.5 130
q-188 0 -326 -130t-157 -323z" />
    <glyph glyph-name="f" unicode="f" horiz-adv-x="567" 
d="M141 1049h86v440q0 303 238 303q94 0 153 -47l-20 -43q-48 41 -129 41q-91 0 -137.5 -58t-46.5 -186v-450h278v-43h-278v-1006h-58v1006h-86v43z" />
    <glyph glyph-name="g" unicode="g" horiz-adv-x="1449" 
d="M170 524q0 161 69.5 289t189.5 198t267 70q157 0 281 -81t188 -220v269h58v-1078q0 -254 -141 -394t-408 -140q-200 0 -328.5 82.5t-191.5 222.5l53 20q51 -124 176 -201t291 -77q231 0 361 130.5t130 336.5v317q-64 -139 -188 -220t-281 -81q-147 0 -267 70t-189.5 198
t-69.5 289zM225 524q0 -220 134 -362t339 -142q206 0 339.5 141.5t133.5 362.5q0 222 -133.5 363t-339.5 141q-205 0 -339 -141.5t-134 -362.5z" />
    <glyph glyph-name="h" unicode="h" horiz-adv-x="1232" 
d="M227 1763h58v-872q26 64 85.5 108.5t123.5 63t127 18.5q211 0 306 -114t95 -312v-655h-57v637q0 393 -344 393q-151 0 -243.5 -95t-92.5 -216v-719h-58v1763z" />
    <glyph glyph-name="i" unicode="i" horiz-adv-x="552" 
d="M248 1049h57v-1049h-57v1049zM276 1354q20 0 35 -14.5t15 -34.5t-15 -35t-35 -15t-34.5 15t-14.5 35t14.5 34.5t34.5 14.5z" />
    <glyph glyph-name="j" unicode="j" 
d="M256 1354q20 0 34.5 -14.5t14.5 -34.5t-14.5 -35t-34.5 -15t-34.5 15t-14.5 35t14.5 34.5t34.5 14.5zM227 1049h58v-1309q0 -303 -238 -303q-98 0 -153 47l16 45q46 -43 133 -43q184 0 184 244v1319z" />
    <glyph glyph-name="k" unicode="k" horiz-adv-x="864" 
d="M227 1761h58v-1149l360 437h70l-307 -371l497 -678h-67l-465 635l-88 -109v-526h-58v1761z" />
    <glyph glyph-name="l" unicode="l" horiz-adv-x="512" 
d="M227 1761h58v-1761h-58v1761z" />
    <glyph glyph-name="m" unicode="m" horiz-adv-x="1974" 
d="M227 1049h58v-158q49 91 145.5 140.5t192.5 49.5q294 0 372 -233q47 98 146 165.5t221 67.5q211 0 306 -114t95 -312v-655h-57v637q0 187 -87 290t-257 103q-69 0 -134.5 -30t-108.5 -73.5t-69 -90.5t-26 -84v-752h-57v637q0 187 -87 290t-257 103q-69 0 -134.5 -30
t-108.5 -73.5t-69 -90.5t-26 -84v-752h-58v1049z" />
    <glyph glyph-name="n" unicode="n" horiz-adv-x="1232" 
d="M227 1049h58v-158q26 64 85.5 108.5t123.5 63t127 18.5q211 0 306 -114t95 -312v-655h-57v637q0 393 -344 393q-151 0 -243.5 -95t-92.5 -216v-719h-58v1049z" />
    <glyph glyph-name="o" unicode="o" horiz-adv-x="1404" 
d="M141 524q0 162 74 290t201.5 197.5t285.5 69.5q118 0 221.5 -41t178.5 -113.5t118.5 -177t43.5 -225.5t-43.5 -225.5t-118.5 -177t-178.5 -113.5t-221.5 -41q-158 0 -285.5 69.5t-201.5 197.5t-74 290zM195 524q0 -220 143 -362t364 -142t364.5 142t143.5 362t-143.5 362
t-364.5 142t-364 -142t-143 -362z" />
    <glyph glyph-name="p" unicode="p" horiz-adv-x="1433" 
d="M227 1049h58v-267q63 139 187.5 219t281.5 80q147 0 267 -70t189.5 -198t69.5 -289t-69.5 -289t-189.5 -198t-267 -70q-157 0 -281 81t-188 220v-800h-58v1581zM279 524q0 -221 133.5 -362.5t339.5 -141.5q205 0 339 142t134 362q0 221 -134 362.5t-339 141.5
q-206 0 -339.5 -141t-133.5 -363z" />
    <glyph glyph-name="q" unicode="q" horiz-adv-x="1433" 
d="M154 524q0 161 69.5 289t189.5 198t267 70q157 0 281 -81t188 -220v269h57v-1581h-57v800q-64 -139 -188 -220t-281 -81q-147 0 -267 70t-189.5 198t-69.5 289zM209 524q0 -220 134 -362t339 -142q206 0 339.5 141.5t133.5 362.5q0 222 -133.5 363t-339.5 141
q-205 0 -339 -141.5t-134 -362.5z" />
    <glyph glyph-name="r" unicode="r" horiz-adv-x="745" 
d="M227 1049h58v-158q30 68 79 111.5t102.5 61t115.5 17.5q96 0 163 -24l-22 -49q-61 22 -141 22q-56 0 -105.5 -19.5t-83.5 -50.5t-59 -68.5t-37 -73.5t-12 -66v-752h-58v1049z" />
    <glyph glyph-name="s" unicode="s" horiz-adv-x="962" 
d="M510 1081q91 0 162.5 -51.5t105.5 -122.5l-47 -22q-27 59 -86.5 102t-134.5 43q-120 0 -182 -57.5t-62 -145.5q0 -77 59.5 -130t188.5 -93q41 -12 63.5 -19.5t62 -23.5t62.5 -30t52.5 -37.5t45 -49.5t27 -62.5t11.5 -78.5q0 -106 -51 -184t-127.5 -115t-165.5 -37
q-130 0 -226.5 75t-142.5 210l49 16q40 -119 124 -184.5t196 -65.5q117 0 204.5 76.5t87.5 208.5q0 34 -9.5 63.5t-23 51t-39 41t-45.5 31.5t-55.5 26t-56 20.5t-59.5 18.5q-43 13 -76.5 26.5t-74.5 37t-68.5 51t-46.5 68.5t-19 89q0 106 78.5 180t218.5 74z" />
    <glyph glyph-name="t" unicode="t" horiz-adv-x="604" 
d="M141 1049h88v391h58v-391h278v-43h-278v-779q0 -107 34 -159t115 -52q32 0 61 9t41 17l13 9l14 -45q-5 -4 -14.5 -10.5t-45 -17.5t-77.5 -11q-50 0 -87 15t-58 38.5t-33.5 59.5t-16.5 70t-4 77v779h-88v43z" />
    <glyph glyph-name="u" unicode="u" horiz-adv-x="1200" 
d="M211 1049h57v-625q0 -99 15.5 -171t43 -116.5t70.5 -71t91 -36t112 -9.5t112 9.5t91 36t70.5 71t43 116.5t15.5 171v625h57v-625q0 -253 -90 -355t-299 -102t-299 102t-90 355v625z" />
    <glyph glyph-name="v" unicode="v" horiz-adv-x="1028" 
d="M10 1049h66l438 -949l438 949h66l-486 -1049h-36z" />
    <glyph glyph-name="w" unicode="w" horiz-adv-x="1794" 
d="M10 1049h66l438 -949l365 949h36l365 -949l438 949h66l-486 -1049h-36l-365 934l-365 -934h-36z" />
    <glyph glyph-name="x" unicode="x" horiz-adv-x="1048" 
d="M98 1049h64l362 -474l363 474h63l-383 -512l441 -537h-66l-418 510l-418 -510h-65l440 537z" />
    <glyph glyph-name="y" unicode="y" horiz-adv-x="1044" 
d="M10 1049h64l467 -1012l430 1012h63l-676 -1581h-61l213 499z" />
    <glyph glyph-name="z" unicode="z" horiz-adv-x="1157" 
d="M147 1049h938l-886 -992h870v-57h-997l884 991h-809v58z" />
    <glyph glyph-name="braceleft" unicode="{" 
d="M170 639q36 0 52 20.5t16 67.5v664q0 70 14.5 130.5t49 117t101 89.5t160.5 33h31v-57h-31q-268 0 -268 -313v-699q0 -61 -29 -78q29 -17 29 -77v-699q0 -313 268 -313h31v-57h-31q-94 0 -160.5 33t-101 89.5t-49 117t-14.5 130.5v664q0 47 -16 67.5t-52 20.5v49z" />
    <glyph glyph-name="bar" unicode="|" 
d="M238 1761h57v-1761h-57v1761z" />
    <glyph glyph-name="braceright" unicode="}" 
d="M-61 1761h30q76 0 134.5 -22.5t94 -58.5t58 -86t31 -99t8.5 -104v-664q0 -47 16 -67.5t51 -20.5v-49q-35 0 -51 -20.5t-16 -67.5v-664q0 -55 -8.5 -104t-31 -99t-58 -86t-94 -58.5t-134.5 -22.5h-30v57h30q269 0 269 313v699q0 60 28 77q-28 17 -28 78v699
q0 313 -269 313h-30v57z" />
    <glyph glyph-name="asciitilde" unicode="~" horiz-adv-x="1282" 
d="M152 782q45 77 117.5 126.5t164.5 49.5q114 0 223 -88q91 -75 191 -75q80 0 142 44t102 115l38 -34q-45 -78 -117.5 -127.5t-164.5 -49.5q-114 0 -223 88q-92 76 -191 76q-80 0 -142 -44t-102 -115z" />
    <glyph glyph-name="exclamdown" unicode="&#xa1;" horiz-adv-x="573" 
d="M287 1260q20 0 34.5 -15t14.5 -35t-14.5 -34.5t-34.5 -14.5t-34.5 14.5t-14.5 34.5t14.5 35t34.5 15zM260 883h53v-1415h-53v1415z" />
    <glyph glyph-name="cent" unicode="&#xa2;" horiz-adv-x="1216" 
d="M629 1303h45v-222h26q213 0 363 -125l-21 -41q-141 125 -342 125q-221 0 -364 -145t-143 -371t143 -370t364 -144q205 0 342 121l21 -41q-141 -117 -342 -123v-231h-47v231q-229 9 -381 165t-152 392q0 223 137 375.5t351 177.5v226z" />
    <glyph glyph-name="sterling" unicode="&#xa3;" horiz-adv-x="1558" 
d="M152 707h315q-36 52 -54.5 80.5t-45 78.5t-39.5 91.5t-23 101t-10 125.5q0 228 153 382t381 154q125 0 228 -38.5t169.5 -103t108 -139t58.5 -157.5l-52 -10q-12 60 -36 114.5t-66 108t-97.5 93t-136 63.5t-176.5 24q-140 0 -251 -66t-170.5 -177.5t-59.5 -247.5
q0 -59 8.5 -114t18.5 -91.5t32.5 -82t34 -66t41 -65.5t37.5 -58h567v-48h-540q49 -96 49 -198q0 -134 -47 -252q56 0 113.5 -19t108 -46.5t102.5 -55t116 -46.5t129 -19q85 0 153.5 46t104 110t41.5 132l53 -26q-18 -125 -120 -220.5t-232 -95.5q-74 0 -142 20t-119.5 48.5
t-100 57.5t-103.5 49t-110 20q-111 0 -185 -47.5t-98 -116.5h-37q18 77 96 137.5t189 69.5q49 123 49 254q0 96 -59 198h-346v48z" />
    <glyph glyph-name="yen" unicode="&#xa5;" horiz-adv-x="1218" 
d="M18 1690h70l520 -899l522 899h70l-541 -930h371v-47h-391v-297h391v-47h-391v-369h-59v369h-392v47h392v297h-392v47h371z" />
    <glyph glyph-name="brokenbar" unicode="&#xa6;" 
d="M238 1761h57v-680h-57v680zM238 680h57v-680h-57v680z" />
    <glyph glyph-name="section" unicode="&#xa7;" horiz-adv-x="1310" 
d="M244 698q0 97 53.5 171t122.5 100q-182 119 -182 319q0 187 124.5 309.5t307.5 122.5q77 0 146 -22t118.5 -58.5t84.5 -79t54 -87.5l-47 -23q-34 87 -130 152t-226 65q-89 0 -163.5 -33.5t-121 -88t-71.5 -121t-25 -136.5q0 -74 28.5 -133.5t82.5 -103t119.5 -74
t152.5 -57.5q258 -79 375.5 -175t117.5 -235q0 -85 -58 -160t-126 -102q193 -135 193 -359q0 -204 -140.5 -328t-363.5 -124q-102 0 -192 32.5t-148 78.5t-102.5 100.5t-64.5 92.5t-26 62l45 23q7 -21 22 -48.5t41.5 -67.5t66.5 -77t90 -70t120 -53t148 -20q196 0 323 105.5
t127 293.5q0 164 -114 269.5t-363 181.5q-208 63 -303.5 151.5t-95.5 206.5zM289 698q0 -60 28 -108.5t83.5 -85.5t118.5 -63.5t153 -53.5q167 -50 270 -115q70 22 124 91.5t54 144.5q0 122 -112 204.5t-365 159.5q-112 36 -184 74q-66 -20 -118 -91t-52 -157z" />
    <glyph glyph-name="dieresis" unicode="&#xa8;" horiz-adv-x="847" 
d="M201 1481q20 0 34.5 -14.5t14.5 -34.5t-14.5 -35t-34.5 -15t-34.5 15t-14.5 35t14.5 34.5t34.5 14.5zM684 1481q20 0 34.5 -14.5t14.5 -34.5t-14.5 -35t-34.5 -15t-34.5 15t-14.5 35t14.5 34.5t34.5 14.5z" />
    <glyph glyph-name="copyright" unicode="&#xa9;" horiz-adv-x="2007" 
d="M152 844q0 182 68 345.5t183 279t272 183.5t329 68q174 0 331 -67.5t271.5 -183.5t181.5 -279t67 -346q0 -244 -110.5 -445t-306 -316.5t-434.5 -115.5q-184 0 -343.5 68t-270.5 185t-174.5 279t-63.5 345zM213 844q0 -172 59 -323.5t162.5 -261t251.5 -173t318 -63.5
q166 0 313 63.5t251 173t164 261.5t60 323q0 227 -105.5 416t-286.5 297t-396 108q-159 0 -304.5 -64t-252.5 -172.5t-170.5 -261.5t-63.5 -323zM440 842q0 161 74 289t202 198t285 70q210 0 361 -123l-35 -39q-139 111 -326 111q-221 0 -364 -143t-143 -363t143 -363
t364 -143q191 0 326 108l35 -38q-151 -123 -361 -123q-157 0 -285 70.5t-202 199t-74 289.5z" />
    <glyph glyph-name="ordfeminine" unicode="&#xaa;" horiz-adv-x="905" 
d="M115 1376q0 150 93 247t232 97q97 0 174 -50t115 -136v166h35v-647h-35v166q-38 -87 -115.5 -137t-173.5 -50q-139 0 -232 96.5t-93 247.5zM150 1376q0 -135 82 -224t208 -89t207.5 89t81.5 224q0 137 -81.5 225.5t-207.5 88.5t-208 -89t-82 -225z" />
    <glyph glyph-name="guillemotleft" unicode="&#xab;" horiz-adv-x="1024" 
d="M420 1081l47 -37l-371 -475l371 -475l-47 -37l-400 512zM932 1081l47 -37l-371 -475l371 -475l-47 -37l-400 512z" />
    <glyph glyph-name="registered" unicode="&#xae;" horiz-adv-x="1064" 
d="M74 1260q0 190 134 325t322 135q126 0 232 -61.5t167.5 -167.5t61.5 -231q0 -189 -134.5 -323t-326.5 -134q-123 0 -228 61t-166.5 166.5t-61.5 229.5zM102 1260q0 -177 125.5 -303t302.5 -126q117 0 217 57.5t158 156.5t58 215q0 178 -127 305t-306 127
q-177 0 -302.5 -126.5t-125.5 -305.5zM393 1579h99q93 0 144.5 -46.5t51.5 -125.5q0 -77 -50.5 -127t-137.5 -53l215 -285h-27l-215 285h-57v-285h-23v637zM416 1561v-314h76q82 0 129 44.5t47 115.5q0 70 -47 112t-129 42h-76z" />
    <glyph glyph-name="macron" unicode="&#xaf;" horiz-adv-x="1122" 
d="M143 1446h836v-47h-836v47z" />
    <glyph glyph-name="degree" unicode="&#xb0;" horiz-adv-x="542" 
d="M63 1581q0 92 59.5 151.5t147.5 59.5q89 0 149 -59t60 -152q0 -92 -58.5 -151.5t-150.5 -59.5t-149.5 59t-57.5 152zM113 1581q0 -72 43.5 -117t113.5 -45q72 0 116 45t44 117q0 70 -45.5 116t-114.5 46q-68 0 -112.5 -46t-44.5 -116z" />
    <glyph glyph-name="plusminus" unicode="&#xb1;" horiz-adv-x="1370" 
d="M659 1372h50v-500h499v-49h-499v-499h-50v499h-499v49h499v500zM1208 0h-1048v49h1048v-49z" />
    <glyph glyph-name="twosuperior" unicode="&#xb2;" horiz-adv-x="569" 
d="M74 1509q0 88 61.5 149.5t149.5 61.5t149.5 -61.5t61.5 -149.5q0 -32 -12 -66t-28.5 -62.5t-47 -62.5t-53.5 -57t-63 -56t-61.5 -49t-62 -46t-51.5 -39h391v-20h-447v6q23 18 71.5 56.5t73.5 58.5t67 55.5t65 58t52.5 55t44 58t25.5 54.5t11 56q0 77 -55 132t-131 55
q-77 0 -132 -55t-55 -132h-24z" />
    <glyph glyph-name="threesuperior" unicode="&#xb3;" horiz-adv-x="497" 
d="M98 1554q0 71 48 118.5t118 47.5q69 0 118.5 -49.5t49.5 -118.5q0 -55 -34 -100.5t-85 -60.5q56 -13 89.5 -60.5t33.5 -107.5q0 -75 -47.5 -123.5t-134.5 -48.5q-88 0 -140.5 48.5t-52.5 121.5h23q0 -63 46 -104.5t124 -41.5q75 0 116.5 42t41.5 106q0 65 -47 111
t-111 46l-21 -2v23h19q65 0 110.5 44t45.5 109q0 60 -42 102t-102 42t-101.5 -42t-41.5 -102h-23z" />
    <glyph glyph-name="acute" unicode="&#xb4;" horiz-adv-x="512" 
d="M350 1720l43 -63l-243 -154l-31 43z" />
    <glyph glyph-name="mu" unicode="&#xb5;" horiz-adv-x="1263" 
d="M242 1051h57v-639q0 -394 344 -394q151 0 243.5 95.5t92.5 216.5v721h57v-1051h-57v158q-38 -93 -137 -142t-199 -49q-249 0 -344 168v-463h-88q0 192 15.5 421t15.5 364v594z" />
    <glyph glyph-name="paragraph" unicode="&#xb6;" horiz-adv-x="1273" 
d="M152 1231q0 210 138 334.5t382 124.5h364v-1690h-57v1640h-51v-1640h-58v754h-198q-242 0 -381 133t-139 344z" />
    <glyph glyph-name="periodcentered" unicode="&#xb7;" horiz-adv-x="327" 
d="M164 600q20 0 34.5 -14.5t14.5 -34.5t-14.5 -34.5t-34.5 -14.5t-34.5 14.5t-14.5 34.5t14.5 34.5t34.5 14.5z" />
    <glyph glyph-name="cedilla" unicode="&#xb8;" horiz-adv-x="794" 
d="M397 45l52 -16l-68 -207q54 12 84 12q95 0 155 -62t60 -159q0 -94 -70.5 -154.5t-177.5 -60.5q-91 0 -159 38.5t-105 110.5l45 25q67 -121 219 -121q79 0 137 41.5t58 120.5q0 75 -45 121.5t-117 46.5q-33 0 -80.5 -12t-83.5 -35l-4 2z" />
    <glyph glyph-name="onesuperior" unicode="&#xb9;" horiz-adv-x="227" 
d="M72 1690h61v-639h-20v616h-41v23z" />
    <glyph glyph-name="ordmasculine" unicode="&#xba;" horiz-adv-x="907" 
d="M111 1376q0 152 98.5 248t247.5 96q148 0 247 -96t99 -248q0 -151 -99 -247.5t-247 -96.5q-149 0 -247.5 96.5t-98.5 247.5zM143 1376q0 -135 89 -223t225 -88q135 0 224 88t89 223t-89 223.5t-224 88.5q-136 0 -225 -88.5t-89 -223.5z" />
    <glyph glyph-name="guillemotright" unicode="&#xbb;" horiz-adv-x="1024" 
d="M557 1044l47 37l400 -512l-400 -512l-47 37l371 475zM45 1044l47 37l400 -512l-400 -512l-47 37l371 475z" />
    <glyph glyph-name="onequarter" unicode="&#xbc;" horiz-adv-x="1386" 
d="M690 373v28l459 580h33v-580h114v-28h-114v-373h-33v373h-459zM729 401h420v531zM121 4h-49l981 1686h49zM141 1690h97v-981h-35v948h-62v33z" />
    <glyph glyph-name="onehalf" unicode="&#xbd;" horiz-adv-x="1826" 
d="M938 676q0 129 91 220t220 91t220.5 -91t91.5 -220q0 -68 -31 -135t-105 -147t-169.5 -162t-251.5 -203h575v-29h-659v10q29 23 85 66.5t87.5 68t82.5 66t81.5 68.5t72 66t66.5 68t53 65.5t43 67t25 64.5t10 66q0 114 -81.5 194t-195.5 80t-194 -80t-80 -194h-37zM121 0
h-49l983 1690h49zM141 1690h97v-983h-35v950h-62v33z" />
    <glyph glyph-name="threequarters" unicode="&#xbe;" horiz-adv-x="1775" 
d="M129 1450q0 105 72 175.5t176 70.5q103 0 175.5 -72.5t72.5 -175.5q0 -84 -50.5 -151t-128.5 -91q83 -20 134 -90.5t51 -159.5q0 -110 -70.5 -182t-200.5 -72q-131 0 -208.5 72.5t-77.5 181.5h35q0 -94 67.5 -156.5t181.5 -62.5t175 61.5t61 157.5q0 97 -69.5 166.5
t-162.5 69.5l-32 -2v33h26q97 0 165.5 65.5t68.5 161.5q0 88 -63 150.5t-152 62.5q-88 0 -150.5 -62.5t-62.5 -150.5h-33zM1079 373v28l459 578h33v-578h115v-28h-115v-373h-33v373h-459zM1118 401h420v531zM510 4h-49l979 1686h49z" />
    <glyph glyph-name="questiondown" unicode="&#xbf;" horiz-adv-x="1177" 
d="M1047 -55h57q0 -230 -135 -369t-361 -139q-144 0 -259 68t-177.5 182t-62.5 250q0 102 34.5 194t98.5 164t165.5 114t225.5 42v327h51v-383q-24 4 -49 4q-220 0 -344.5 -128t-124.5 -334q0 -202 122 -322.5t320 -120.5q200 0 319.5 123t119.5 328zM659 1092
q-20 0 -34.5 14.5t-14.5 34.5t14.5 34.5t34.5 14.5t35 -14.5t15 -34.5t-15 -34.5t-35 -14.5z" />
    <glyph glyph-name="Agrave" unicode="&#xc0;" horiz-adv-x="1368" 
d="M442 1995l43 63l230 -174l-31 -43zM657 1690h54l657 -1690h-61l-242 625h-762l-242 -625h-61zM684 1620l-362 -944h725z" />
    <glyph glyph-name="Aacute" unicode="&#xc1;" horiz-adv-x="1368" 
d="M657 1696h54l657 -1690h-61l-242 625h-762l-242 -625h-61zM684 1626l-362 -944h725zM885 2060l43 -63l-244 -154l-31 43z" />
    <glyph glyph-name="Acircumflex" unicode="&#xc2;" horiz-adv-x="1368" 
d="M340 1884l344 252l344 -252l-31 -43l-313 230l-313 -230zM657 1690h54l657 -1690h-61l-242 625h-762l-242 -625h-61zM684 1620l-362 -944h725z" />
    <glyph glyph-name="Atilde" unicode="&#xc3;" horiz-adv-x="1368" 
d="M195 2062q45 77 117.5 126.5t164.5 49.5q114 0 223 -88q91 -75 191 -75q80 0 142 44t102 115l39 -34q-45 -77 -118 -127t-165 -50q-114 0 -223 88q-92 76 -191 76q-80 0 -142 -44t-102 -115zM657 1690h54l657 -1690h-61l-242 625h-762l-242 -625h-61zM684 1620l-362 -944
h725z" />
    <glyph glyph-name="Adieresis" unicode="&#xc4;" horiz-adv-x="1368" 
d="M442 2120q20 0 35 -14.5t15 -34.5t-15 -35t-35 -15t-34.5 15t-14.5 35t14.5 34.5t34.5 14.5zM926 2120q20 0 34.5 -14.5t14.5 -34.5t-14.5 -35t-34.5 -15t-34.5 15t-14.5 35t14.5 34.5t34.5 14.5zM657 1690h54l657 -1690h-61l-242 625h-762l-242 -625h-61zM684 1620
l-362 -944h725z" />
    <glyph glyph-name="Aring" unicode="&#xc5;" horiz-adv-x="1368" 
d="M657 1690h54l657 -1690h-61l-242 625h-762l-242 -625h-61zM684 1620l-362 -944h725zM539 2140q0 -54 41 -88.5t104 -34.5t104 34.5t41 88.5t-41 88.5t-104 34.5t-104 -34.5t-41 -88.5zM485 2140q0 76 57.5 126t141.5 50t141.5 -50t57.5 -126t-57.5 -126t-141.5 -50
t-141.5 50t-57.5 126z" />
    <glyph glyph-name="AE" unicode="&#xc6;" horiz-adv-x="1638" 
d="M657 1690h830v-52h-746v-766h721v-51h-721v-770h746v-51h-803v625h-383l-240 -625h-61zM322 676h362v944z" />
    <glyph glyph-name="Ccedilla" unicode="&#xc7;" horiz-adv-x="1691" 
d="M152 844q0 182 70 345.5t188.5 279t280 183.5t337.5 68q305 0 543 -186l-37 -45q-218 174 -506 174q-164 0 -314 -63.5t-259.5 -172t-174.5 -261t-65 -322.5q0 -171 60.5 -322t166.5 -260.5t258 -173t328 -63.5q288 0 508 170l37 -45q-231 -183 -539 -183l-49 -145
q54 12 84 12q95 0 155 -62t60 -159q0 -94 -70.5 -154.5t-177.5 -60.5q-91 0 -159 38.5t-105 110.5l45 25q67 -121 219 -121q79 0 137 41.5t58 120.5q0 75 -45 121.5t-117 46.5q-33 0 -80.5 -12t-83.5 -35l-4 2l76 233q-179 9 -333 80.5t-262 187.5t-169 273t-61 334z" />
    <glyph glyph-name="Egrave" unicode="&#xc8;" horiz-adv-x="1191" 
d="M440 1995l43 63l232 -174l-31 -43zM238 1690h802v-52h-745v-766h721v-51h-721v-770h745v-51h-802v1690z" />
    <glyph glyph-name="Eacute" unicode="&#xc9;" horiz-adv-x="1191" 
d="M238 1690h802v-52h-745v-766h721v-51h-721v-770h745v-51h-802v1690zM795 2060l43 -63l-244 -154l-31 43z" />
    <glyph glyph-name="Ecircumflex" unicode="&#xca;" horiz-adv-x="1191" 
d="M238 1690h802v-52h-745v-766h721v-51h-721v-770h745v-51h-802v1690zM295 1884l344 252l344 -252l-31 -43l-313 230l-313 -230z" />
    <glyph glyph-name="Edieresis" unicode="&#xcb;" horiz-adv-x="1191" 
d="M238 1690h802v-52h-745v-766h721v-51h-721v-770h745v-51h-802v1690zM397 2120q20 0 34.5 -14.5t14.5 -34.5t-14.5 -35t-34.5 -15t-34.5 15t-14.5 35t14.5 34.5t34.5 14.5zM881 2120q20 0 34.5 -14.5t14.5 -34.5t-14.5 -35t-34.5 -15t-35 15t-15 35t15 34.5t35 14.5z" />
    <glyph glyph-name="Igrave" unicode="&#xcc;" 
d="M68 2060l227 -174l-29 -43l-243 154zM238 1690h57v-1690h-57v1690z" />
    <glyph glyph-name="Iacute" unicode="&#xcd;" 
d="M238 1690h57v-1690h-57v1690zM467 2060l43 -63l-244 -154l-30 43z" />
    <glyph glyph-name="Icircumflex" unicode="&#xce;" 
d="M-78 1884l344 252l344 -252l-30 -43l-314 230l-313 -230zM238 1690h57v-1690h-57v1690z" />
    <glyph glyph-name="Idieresis" unicode="&#xcf;" 
d="M25 2120q20 0 34.5 -14.5t14.5 -34.5t-14.5 -35t-34.5 -15t-35 15t-15 35t15 34.5t35 14.5zM508 2120q20 0 34.5 -14.5t14.5 -34.5t-14.5 -35t-34.5 -15t-34.5 15t-14.5 35t14.5 34.5t34.5 14.5zM238 1690h57v-1690h-57v1690z" />
    <glyph glyph-name="Eth" unicode="&#xd0;" horiz-adv-x="1574" 
d="M238 1690h333q172 0 328 -63.5t271.5 -173.5t184 -268.5t68.5 -338.5q0 -181 -68 -340t-183.5 -269t-271.5 -173.5t-329 -63.5h-333v821h-168v47h168v822zM295 1638v-770h551v-47h-551v-770h276q160 0 306 60t254 163.5t172.5 252.5t64.5 319q0 169 -64.5 317.5t-173 252
t-254.5 163t-305 59.5h-276z" />
    <glyph glyph-name="Ntilde" unicode="&#xd1;" horiz-adv-x="1597" 
d="M309 2062q45 77 118 126.5t165 49.5q114 0 223 -88q91 -75 191 -75q80 0 141.5 44t101.5 115l39 -34q-45 -78 -117.5 -127.5t-164.5 -49.5q-115 0 -224 88q-92 76 -190 76q-80 0 -142 -44t-102 -115zM238 1690h57l1008 -1586v1586h57v-1690h-57l-1008 1583v-1583h-57
v1690z" />
    <glyph glyph-name="Ograve" unicode="&#xd2;" horiz-adv-x="2007" 
d="M805 1997l43 63l231 -174l-30 -43zM213 844q0 -170 63.5 -323t170.5 -261.5t252.5 -172.5t304.5 -64t304.5 64t252 172.5t170 261.5t63.5 323t-63.5 323t-170 261.5t-252 172.5t-304.5 64t-304.5 -64t-252.5 -172.5t-170.5 -261.5t-63.5 -323zM152 844q0 182 68 345.5
t183 279t272 183.5t329 68t329 -68t271.5 -183.5t182.5 -279t68 -345.5t-68 -345.5t-182.5 -279.5t-271.5 -184t-329 -68t-329 68t-272 184t-183 279.5t-68 345.5z" />
    <glyph glyph-name="Oacute" unicode="&#xd3;" horiz-adv-x="2007" 
d="M213 844q0 -170 63.5 -323t170.5 -261.5t252.5 -172.5t304.5 -64t304.5 64t252 172.5t170 261.5t63.5 323t-63.5 323t-170 261.5t-252 172.5t-304.5 64t-304.5 -64t-252.5 -172.5t-170.5 -261.5t-63.5 -323zM152 844q0 182 68 345.5t183 279t272 183.5t329 68t329 -68
t271.5 -183.5t182.5 -279t68 -345.5t-68 -345.5t-182.5 -279.5t-271.5 -184t-329 -68t-329 68t-272 184t-183 279.5t-68 345.5zM1159 2060l43 -63l-244 -154l-30 43z" />
    <glyph glyph-name="Ocircumflex" unicode="&#xd4;" horiz-adv-x="2007" 
d="M659 1884l345 252l344 -252l-31 -43l-313 230l-314 -230zM213 844q0 -170 63.5 -323t170.5 -261.5t252.5 -172.5t304.5 -64t304.5 64t252 172.5t170 261.5t63.5 323t-63.5 323t-170 261.5t-252 172.5t-304.5 64t-304.5 -64t-252.5 -172.5t-170.5 -261.5t-63.5 -323z
M152 844q0 182 68 345.5t183 279t272 183.5t329 68t329 -68t271.5 -183.5t182.5 -279t68 -345.5t-68 -345.5t-182.5 -279.5t-271.5 -184t-329 -68t-329 68t-272 184t-183 279.5t-68 345.5z" />
    <glyph glyph-name="Otilde" unicode="&#xd5;" horiz-adv-x="2007" 
d="M514 2062q45 77 118 126.5t165 49.5q114 0 223 -88q91 -75 190 -75q80 0 142 44t102 115l39 -34q-45 -77 -118 -127t-165 -50q-114 0 -223 88q-92 76 -190 76q-80 0 -142 -44t-102 -115zM213 844q0 -170 63.5 -323t170.5 -261.5t252.5 -172.5t304.5 -64t304.5 64
t252 172.5t170 261.5t63.5 323t-63.5 323t-170 261.5t-252 172.5t-304.5 64t-304.5 -64t-252.5 -172.5t-170.5 -261.5t-63.5 -323zM152 844q0 182 68 345.5t183 279t272 183.5t329 68t329 -68t271.5 -183.5t182.5 -279t68 -345.5t-68 -345.5t-182.5 -279.5t-271.5 -184
t-329 -68t-329 68t-272 184t-183 279.5t-68 345.5z" />
    <glyph glyph-name="Odieresis" unicode="&#xd6;" horiz-adv-x="2007" 
d="M762 2120q20 0 34.5 -14.5t14.5 -34.5t-14.5 -35t-34.5 -15t-34.5 15t-14.5 35t14.5 34.5t34.5 14.5zM1245 2120q20 0 34.5 -14.5t14.5 -34.5t-14.5 -35t-34.5 -15t-34.5 15t-14.5 35t14.5 34.5t34.5 14.5zM213 844q0 -170 63.5 -323t170.5 -261.5t252.5 -172.5
t304.5 -64t304.5 64t252 172.5t170 261.5t63.5 323t-63.5 323t-170 261.5t-252 172.5t-304.5 64t-304.5 -64t-252.5 -172.5t-170.5 -261.5t-63.5 -323zM152 844q0 182 68 345.5t183 279t272 183.5t329 68t329 -68t271.5 -183.5t182.5 -279t68 -345.5t-68 -345.5
t-182.5 -279.5t-271.5 -184t-329 -68t-329 68t-272 184t-183 279.5t-68 345.5z" />
    <glyph glyph-name="multiply" unicode="&#xd7;" horiz-adv-x="1110" 
d="M115 1255l35 33l405 -407l408 407l32 -33l-407 -407l407 -406l-34 -34l-406 407l-408 -407l-32 34l407 406z" />
    <glyph glyph-name="Oslash" unicode="&#xd8;" horiz-adv-x="2009" 
d="M152 844q0 182 68 345.5t183 279t272 183.5t329 68q284 0 512 -174l106 137l47 -34l-108 -140q138 -123 216 -295t78 -370q0 -182 -68 -345.5t-182.5 -279.5t-271.5 -184t-329 -68q-284 0 -510 172l-103 -131l-45 35l103 133q-138 122 -217.5 295.5t-79.5 372.5zM213 844
q0 -185 72.5 -346.5t199.5 -276.5l994 1278q-212 166 -475 166q-159 0 -304.5 -64t-252.5 -172.5t-170.5 -261.5t-63.5 -323zM1794 844q0 183 -72 342.5t-198 275.5l-996 -1276q208 -163 476 -163q159 0 304.5 64t252 172.5t170 261.5t63.5 323z" />
    <glyph glyph-name="Ugrave" unicode="&#xd9;" horiz-adv-x="1548" 
d="M575 1997l43 63l232 -174l-31 -43zM221 1690h58v-1082q0 -286 125.5 -434.5t369.5 -148.5t370 148.5t126 434.5v1082h57v-1082q0 -641 -553 -641t-553 641v1082z" />
    <glyph glyph-name="Uacute" unicode="&#xda;" horiz-adv-x="1548" 
d="M221 1690h58v-1082q0 -286 125.5 -434.5t369.5 -148.5t370 148.5t126 434.5v1082h57v-1082q0 -641 -553 -641t-553 641v1082zM930 2060l43 -63l-244 -154l-31 43z" />
    <glyph glyph-name="Ucircumflex" unicode="&#xdb;" horiz-adv-x="1548" 
d="M430 1884l344 252l344 -252l-31 -43l-313 230l-313 -230zM221 1690h58v-1082q0 -286 125.5 -434.5t369.5 -148.5t370 148.5t126 434.5v1082h57v-1082q0 -641 -553 -641t-553 641v1082z" />
    <glyph glyph-name="Udieresis" unicode="&#xdc;" horiz-adv-x="1548" 
d="M532 2120q20 0 35 -14.5t15 -34.5t-15 -35t-35 -15t-34.5 15t-14.5 35t14.5 34.5t34.5 14.5zM1016 2120q20 0 34.5 -14.5t14.5 -34.5t-14.5 -35t-34.5 -15t-34.5 15t-14.5 35t14.5 34.5t34.5 14.5zM221 1690h58v-1082q0 -286 125.5 -434.5t369.5 -148.5t370 148.5
t126 434.5v1082h57v-1082q0 -641 -553 -641t-553 641v1082z" />
    <glyph glyph-name="Yacute" unicode="&#xdd;" horiz-adv-x="1216" 
d="M16 1690h70l522 -899l522 899h70l-563 -969v-721h-57v721zM743 2060l43 -63l-243 -154l-31 43z" />
    <glyph glyph-name="Thorn" unicode="&#xde;" horiz-adv-x="2000" 
d="M238 1690h57v-387h305q246 0 384 -124.5t138 -334.5q0 -211 -139.5 -344t-382.5 -133h-305v-367h-57v1690zM295 1253v-831h305q218 0 343.5 117.5t125.5 304.5t-124.5 298t-344.5 111h-305z" />
    <glyph glyph-name="germandbls" unicode="&#xdf;" horiz-adv-x="1300" 
d="M238 1352q0 183 128.5 311.5t311.5 128.5t311.5 -128.5t128.5 -311.5q0 -138 -77 -250t-201 -160q150 -52 244 -181.5t94 -293.5q0 -136 -67 -251t-182 -182t-251 -67h-223v58h223q184 0 313 130t129 312q0 184 -129 314t-313 130h-223v58h223q158 0 270.5 112.5
t112.5 270.5t-112.5 270.5t-270.5 112.5t-270.5 -112.5t-112.5 -270.5v-1352h-57v774h-136v60h136v518z" />
    <glyph glyph-name="agrave" unicode="&#xe0;" horiz-adv-x="1433" 
d="M502 1356l43 63l231 -174l-31 -43zM154 524q0 161 69.5 289t189.5 198t267 70q157 0 281 -81t188 -220v269h57v-1049h-57v268q-64 -139 -188 -220t-281 -81q-147 0 -267 70t-189.5 198t-69.5 289zM209 524q0 -220 134 -362t339 -142q206 0 339.5 141.5t133.5 362.5
q0 222 -133.5 363t-339.5 141q-205 0 -339 -141.5t-134 -362.5z" />
    <glyph glyph-name="aacute" unicode="&#xe1;" horiz-adv-x="1433" 
d="M154 524q0 161 69.5 289t189.5 198t267 70q157 0 281 -81t188 -220v269h57v-1049h-57v268q-64 -139 -188 -220t-281 -81q-147 0 -267 70t-189.5 198t-69.5 289zM209 524q0 -220 134 -362t339 -142q206 0 339.5 141.5t133.5 362.5q0 222 -133.5 363t-339.5 141
q-205 0 -339 -141.5t-134 -362.5zM733 1419l43 -63l-244 -154l-30 43z" />
    <glyph glyph-name="acircumflex" unicode="&#xe2;" horiz-adv-x="1433" 
d="M336 1245l344 252l344 -252l-31 -43l-313 230l-313 -230zM154 524q0 161 69.5 289t189.5 198t267 70q157 0 281 -81t188 -220v269h57v-1049h-57v268q-64 -139 -188 -220t-281 -81q-147 0 -267 70t-189.5 198t-69.5 289zM209 524q0 -220 134 -362t339 -142
q206 0 339.5 141.5t133.5 362.5q0 222 -133.5 363t-339.5 141q-205 0 -339 -141.5t-134 -362.5z" />
    <glyph glyph-name="atilde" unicode="&#xe3;" horiz-adv-x="1433" 
d="M190 1298q45 77 118 127t165 50q113 0 223 -89q91 -75 191 -75q80 0 141.5 44t101.5 115l39 -34q-45 -77 -117.5 -126.5t-164.5 -49.5q-114 0 -223 88q-91 75 -191 75q-80 0 -142 -44t-102 -115zM154 524q0 161 69.5 289t189.5 198t267 70q157 0 281 -81t188 -220v269h57
v-1049h-57v268q-64 -139 -188 -220t-281 -81q-147 0 -267 70t-189.5 198t-69.5 289zM209 524q0 -220 134 -362t339 -142q206 0 339.5 141.5t133.5 362.5q0 222 -133.5 363t-339.5 141q-205 0 -339 -141.5t-134 -362.5z" />
    <glyph glyph-name="adieresis" unicode="&#xe4;" horiz-adv-x="1433" 
d="M438 1481q20 0 34.5 -14.5t14.5 -34.5t-14.5 -35t-34.5 -15t-34.5 15t-14.5 35t14.5 34.5t34.5 14.5zM922 1481q20 0 34.5 -14.5t14.5 -34.5t-14.5 -35t-34.5 -15t-35 15t-15 35t15 34.5t35 14.5zM154 524q0 161 69.5 289t189.5 198t267 70q157 0 281 -81t188 -220v269
h57v-1049h-57v268q-64 -139 -188 -220t-281 -81q-147 0 -267 70t-189.5 198t-69.5 289zM209 524q0 -220 134 -362t339 -142q206 0 339.5 141.5t133.5 362.5q0 222 -133.5 363t-339.5 141q-205 0 -339 -141.5t-134 -362.5z" />
    <glyph glyph-name="aring" unicode="&#xe5;" horiz-adv-x="1433" 
d="M154 524q0 161 69.5 289t189.5 198t267 70q157 0 281 -81t188 -220v269h57v-1049h-57v268q-64 -139 -188 -220t-281 -81q-147 0 -267 70t-189.5 198t-69.5 289zM209 524q0 -220 134 -362t339 -142q206 0 339.5 141.5t133.5 362.5q0 222 -133.5 363t-339.5 141
q-205 0 -339 -141.5t-134 -362.5zM535 1499q0 -54 41 -88.5t104 -34.5t104 34.5t41 88.5t-41 88.5t-104 34.5t-104 -34.5t-41 -88.5zM481 1499q0 76 57.5 126t141.5 50t141.5 -50t57.5 -126t-57.5 -126t-141.5 -50t-141.5 50t-57.5 126z" />
    <glyph glyph-name="ae" unicode="&#xe6;" horiz-adv-x="2134" 
d="M141 307q0 151 119.5 246.5t298.5 95.5q116 0 210 -43t149 -117v148q0 188 -94.5 290.5t-272.5 102.5q-171 0 -305 -149l-41 32q63 82 157 125t189 43q183 0 285.5 -85.5t128.5 -237.5q67 146 198 234.5t291 88.5q146 0 270 -74t196.5 -202.5t72.5 -280.5h-1024
q0 -220 143 -362t363 -142q139 0 252 60t178 166l45 -29q-74 -118 -198 -184t-277 -66q-166 0 -299 79.5t-201 217.5q-18 -82 -63.5 -143t-106 -93t-122 -46.5t-124.5 -14.5q-179 0 -298.5 95.5t-119.5 244.5zM971 575h964q-19 193 -156.5 323t-324.5 130q-188 0 -326 -130
t-157 -323zM195 309q0 -128 105 -208.5t259 -80.5t259.5 80.5t105.5 208.5t-105.5 207.5t-259.5 79.5t-259 -79.5t-105 -207.5z" />
    <glyph glyph-name="ccedilla" unicode="&#xe7;" horiz-adv-x="1218" 
d="M141 524q0 161 74 289t201.5 198t283.5 70q212 0 363 -123l-35 -38q-135 108 -328 108q-220 0 -362.5 -142t-142.5 -362t142.5 -362t362.5 -142q193 0 326 109l37 -39q-155 -123 -363 -123q-26 0 -38 2l-48 -147q54 12 84 12q95 0 155 -62t60 -159q0 -94 -70 -154.5
t-177 -60.5q-91 0 -159.5 38.5t-105.5 110.5l45 25q67 -121 220 -121q78 0 136 41.5t58 120.5q0 75 -45 121.5t-117 46.5q-32 0 -79.5 -12t-83.5 -35l-5 2l78 239q-205 30 -336 181t-131 368z" />
    <glyph glyph-name="egrave" unicode="&#xe8;" horiz-adv-x="1359" 
d="M502 1356l43 63l231 -174l-31 -43zM141 524q0 152 72.5 280.5t196.5 202.5t270 74t270 -74t196.5 -202.5t72.5 -280.5h-1024q0 -220 142.5 -362t362.5 -142q139 0 252 60t178 166l46 -29q-74 -118 -198.5 -184t-277.5 -66q-156 0 -283.5 70t-201.5 198t-74 289zM197 575
h964q-19 193 -156.5 323t-324.5 130q-188 0 -326 -130t-157 -323z" />
    <glyph glyph-name="eacute" unicode="&#xe9;" horiz-adv-x="1359" 
d="M141 524q0 152 72.5 280.5t196.5 202.5t270 74t270 -74t196.5 -202.5t72.5 -280.5h-1024q0 -220 142.5 -362t362.5 -142q139 0 252 60t178 166l46 -29q-74 -118 -198.5 -184t-277.5 -66q-156 0 -283.5 70t-201.5 198t-74 289zM197 575h964q-19 193 -156.5 323t-324.5 130
q-188 0 -326 -130t-157 -323zM815 1419l43 -63l-244 -154l-30 43z" />
    <glyph glyph-name="ecircumflex" unicode="&#xea;" horiz-adv-x="1359" 
d="M336 1245l344 252l344 -252l-31 -43l-313 230l-313 -230zM141 524q0 152 72.5 280.5t196.5 202.5t270 74t270 -74t196.5 -202.5t72.5 -280.5h-1024q0 -220 142.5 -362t362.5 -142q139 0 252 60t178 166l46 -29q-74 -118 -198.5 -184t-277.5 -66q-156 0 -283.5 70
t-201.5 198t-74 289zM197 575h964q-19 193 -156.5 323t-324.5 130q-188 0 -326 -130t-157 -323z" />
    <glyph glyph-name="edieresis" unicode="&#xeb;" horiz-adv-x="1359" 
d="M438 1341q20 0 34.5 -14.5t14.5 -34.5t-14.5 -34.5t-34.5 -14.5t-34.5 14.5t-14.5 34.5t14.5 34.5t34.5 14.5zM922 1341q20 0 34.5 -14.5t14.5 -34.5t-14.5 -34.5t-34.5 -14.5t-35 14.5t-15 34.5t15 34.5t35 14.5zM141 524q0 152 72.5 280.5t196.5 202.5t270 74t270 -74
t196.5 -202.5t72.5 -280.5h-1024q0 -220 142.5 -362t362.5 -142q139 0 252 60t178 166l46 -29q-74 -118 -198.5 -184t-277.5 -66q-156 0 -283.5 70t-201.5 198t-74 289zM197 575h964q-19 193 -156.5 323t-324.5 130q-188 0 -326 -130t-157 -323z" />
    <glyph glyph-name="igrave" unicode="&#xec;" horiz-adv-x="552" 
d="M33 1356l43 63l231 -174l-31 -43zM248 1049h57v-1049h-57v1049z" />
    <glyph glyph-name="iacute" unicode="&#xed;" horiz-adv-x="552" 
d="M248 1049h57v-1049h-57v1049zM477 1419l43 -63l-244 -154l-30 43z" />
    <glyph glyph-name="icircumflex" unicode="&#xee;" horiz-adv-x="552" 
d="M-68 1245l344 252l345 -252l-31 -43l-314 230l-313 -230zM248 1049h57v-1049h-57v1049z" />
    <glyph glyph-name="idieresis" unicode="&#xef;" horiz-adv-x="552" 
d="M35 1354q20 0 34.5 -14.5t14.5 -34.5t-14.5 -35t-34.5 -15t-34.5 15t-14.5 35t14.5 34.5t34.5 14.5zM518 1354q20 0 34.5 -14.5t14.5 -34.5t-14.5 -35t-34.5 -15t-34.5 15t-14.5 35t14.5 34.5t34.5 14.5zM248 1049h57v-1049h-57v1049z" />
    <glyph glyph-name="eth" unicode="&#xf0;" horiz-adv-x="1429" 
d="M141 524q0 162 74 290t201.5 197.5t285.5 69.5q157 0 285.5 -70t200.5 -194q-74 483 -395 742l-158 -158l-41 41l151 151q-117 87 -276 146l20 53q170 -63 297 -158l158 158l41 -41l-154 -152q214 -178 323.5 -450.5t109.5 -624.5q0 -161 -74 -289t-202.5 -198
t-285.5 -70t-285 70t-202 198t-74 289zM195 524q0 -220 143 -362t364 -142q220 0 364 142.5t144 361.5t-144 361.5t-364 142.5q-221 0 -364 -142t-143 -362z" />
    <glyph glyph-name="ntilde" unicode="&#xf1;" horiz-adv-x="1232" 
d="M131 1298q45 77 118 127t165 50q113 0 223 -89q91 -75 190 -75q80 0 142 44t102 115l39 -34q-45 -77 -118 -126.5t-165 -49.5q-114 0 -223 88q-91 75 -190 75q-80 0 -142 -44t-102 -115zM227 1049h58v-158q26 64 85.5 108.5t123.5 63t127 18.5q211 0 306 -114t95 -312
v-655h-57v637q0 393 -344 393q-151 0 -243.5 -95t-92.5 -216v-719h-58v1049z" />
    <glyph glyph-name="ograve" unicode="&#xf2;" horiz-adv-x="1404" 
d="M524 1354l43 63l232 -174l-31 -43zM141 524q0 162 74 290t201.5 197.5t285.5 69.5q118 0 221.5 -41t178.5 -113.5t118.5 -177t43.5 -225.5t-43.5 -225.5t-118.5 -177t-178.5 -113.5t-221.5 -41q-158 0 -285.5 69.5t-201.5 197.5t-74 290zM195 524q0 -220 143 -362
t364 -142t364.5 142t143.5 362t-143.5 362t-364.5 142t-364 -142t-143 -362z" />
    <glyph glyph-name="oacute" unicode="&#xf3;" horiz-adv-x="1404" 
d="M141 524q0 162 74 290t201.5 197.5t285.5 69.5q118 0 221.5 -41t178.5 -113.5t118.5 -177t43.5 -225.5t-43.5 -225.5t-118.5 -177t-178.5 -113.5t-221.5 -41q-158 0 -285.5 69.5t-201.5 197.5t-74 290zM195 524q0 -220 143 -362t364 -142t364.5 142t143.5 362t-143.5 362
t-364.5 142t-364 -142t-143 -362zM838 1419l43 -63l-244 -154l-31 43z" />
    <glyph glyph-name="ocircumflex" unicode="&#xf4;" horiz-adv-x="1404" 
d="M358 1245l344 252l345 -252l-31 -43l-314 230l-313 -230zM141 524q0 162 74 290t201.5 197.5t285.5 69.5q118 0 221.5 -41t178.5 -113.5t118.5 -177t43.5 -225.5t-43.5 -225.5t-118.5 -177t-178.5 -113.5t-221.5 -41q-158 0 -285.5 69.5t-201.5 197.5t-74 290zM195 524
q0 -220 143 -362t364 -142t364.5 142t143.5 362t-143.5 362t-364.5 142t-364 -142t-143 -362z" />
    <glyph glyph-name="otilde" unicode="&#xf5;" horiz-adv-x="1404" 
d="M213 1298q45 77 118 127t165 50q113 0 223 -89q91 -75 190 -75q80 0 142 44t102 115l39 -34q-45 -77 -118 -126.5t-165 -49.5q-114 0 -223 88q-91 75 -190 75q-80 0 -142 -44t-102 -115zM141 524q0 162 74 290t201.5 197.5t285.5 69.5q118 0 221.5 -41t178.5 -113.5
t118.5 -177t43.5 -225.5t-43.5 -225.5t-118.5 -177t-178.5 -113.5t-221.5 -41q-158 0 -285.5 69.5t-201.5 197.5t-74 290zM195 524q0 -220 143 -362t364 -142t364.5 142t143.5 362t-143.5 362t-364.5 142t-364 -142t-143 -362z" />
    <glyph glyph-name="odieresis" unicode="&#xf6;" horiz-adv-x="1404" 
d="M461 1481q20 0 34.5 -14.5t14.5 -34.5t-14.5 -35t-34.5 -15t-34.5 15t-14.5 35t14.5 34.5t34.5 14.5zM944 1481q20 0 34.5 -14.5t14.5 -34.5t-14.5 -35t-34.5 -15t-34.5 15t-14.5 35t14.5 34.5t34.5 14.5zM141 524q0 162 74 290t201.5 197.5t285.5 69.5q118 0 221.5 -41
t178.5 -113.5t118.5 -177t43.5 -225.5t-43.5 -225.5t-118.5 -177t-178.5 -113.5t-221.5 -41q-158 0 -285.5 69.5t-201.5 197.5t-74 290zM195 524q0 -220 143 -362t364 -142t364.5 142t143.5 362t-143.5 362t-364.5 142t-364 -142t-143 -362z" />
    <glyph glyph-name="divide" unicode="&#xf7;" horiz-adv-x="1368" 
d="M684 1417q20 0 34.5 -14.5t14.5 -34.5t-14.5 -34.5t-34.5 -14.5t-34.5 14.5t-14.5 34.5t14.5 34.5t34.5 14.5zM160 874h1048v-49h-1048v49zM684 381q20 0 34.5 -14.5t14.5 -34.5t-14.5 -34.5t-34.5 -14.5t-34.5 14.5t-14.5 34.5t14.5 34.5t34.5 14.5z" />
    <glyph glyph-name="oslash" unicode="&#xf8;" horiz-adv-x="1404" 
d="M141 524q0 162 74 290t201.5 197.5t285.5 69.5q126 0 235 -47t187 -131l207 168l37 -45l-207 -168q103 -147 103 -334q0 -121 -43.5 -225.5t-118.5 -177t-178.5 -113.5t-221.5 -41q-128 0 -236.5 46.5t-184.5 131.5l-207 -168l-37 46l207 167q-103 140 -103 334z
M1210 524q0 171 -92 299l-796 -645q148 -158 380 -158q221 0 364.5 142t143.5 362zM195 524q0 -172 90 -301l796 645q-69 76 -166.5 118t-212.5 42q-221 0 -364 -142t-143 -362z" />
    <glyph glyph-name="ugrave" unicode="&#xf9;" horiz-adv-x="1200" 
d="M422 1356l43 63l231 -174l-30 -43zM211 1049h57v-625q0 -99 15.5 -171t43 -116.5t70.5 -71t91 -36t112 -9.5t112 9.5t91 36t70.5 71t43 116.5t15.5 171v625h57v-625q0 -253 -90 -355t-299 -102t-299 102t-90 355v625z" />
    <glyph glyph-name="uacute" unicode="&#xfa;" horiz-adv-x="1200" 
d="M211 1049h57v-625q0 -99 15.5 -171t43 -116.5t70.5 -71t91 -36t112 -9.5t112 9.5t91 36t70.5 71t43 116.5t15.5 171v625h57v-625q0 -253 -90 -355t-299 -102t-299 102t-90 355v625zM735 1419l43 -63l-243 -154l-31 43z" />
    <glyph glyph-name="ucircumflex" unicode="&#xfb;" horiz-adv-x="1200" 
d="M256 1245l344 252l344 -252l-31 -43l-313 230l-313 -230zM211 1049h57v-625q0 -99 15.5 -171t43 -116.5t70.5 -71t91 -36t112 -9.5t112 9.5t91 36t70.5 71t43 116.5t15.5 171v625h57v-625q0 -253 -90 -355t-299 -102t-299 102t-90 355v625z" />
    <glyph glyph-name="udieresis" unicode="&#xfc;" horiz-adv-x="1200" 
d="M358 1341q20 0 35 -14.5t15 -34.5t-15 -34.5t-35 -14.5t-34.5 14.5t-14.5 34.5t14.5 34.5t34.5 14.5zM842 1341q20 0 34.5 -14.5t14.5 -34.5t-14.5 -34.5t-34.5 -14.5t-34.5 14.5t-14.5 34.5t14.5 34.5t34.5 14.5zM211 1049h57v-625q0 -99 15.5 -171t43 -116.5t70.5 -71
t91 -36t112 -9.5t112 9.5t91 36t70.5 71t43 116.5t15.5 171v625h57v-625q0 -253 -90 -355t-299 -102t-299 102t-90 355v625z" />
    <glyph glyph-name="yacute" unicode="&#xfd;" horiz-adv-x="1044" 
d="M10 1049h64l467 -1012l430 1012h63l-676 -1581h-61l213 499zM655 1419l43 -63l-243 -154l-31 43z" />
    <glyph glyph-name="thorn" unicode="&#xfe;" horiz-adv-x="1421" 
d="M227 1761h58v-981q64 139 188 220t281 81q147 0 267 -70t189.5 -198t69.5 -289t-69.5 -289t-189.5 -198t-267 -70q-157 0 -281 81t-188 220v-800h-58v2293zM279 524q0 -221 133.5 -362.5t339.5 -141.5q205 0 339 142t134 362q0 221 -134 362.5t-339 141.5
q-206 0 -339.5 -141t-133.5 -363z" />
    <glyph glyph-name="ydieresis" unicode="&#xff;" horiz-adv-x="1044" 
d="M299 1341q20 0 34.5 -14.5t14.5 -34.5t-14.5 -34.5t-34.5 -14.5t-34.5 14.5t-14.5 34.5t14.5 34.5t34.5 14.5zM782 1341q20 0 34.5 -14.5t14.5 -34.5t-14.5 -34.5t-34.5 -14.5t-34.5 14.5t-14.5 34.5t14.5 34.5t34.5 14.5zM10 1049h64l467 -1012l430 1012h63l-676 -1581
h-61l213 499z" />
    <glyph glyph-name="Amacron" unicode="&#x100;" horiz-adv-x="1368" 
d="M266 1985h836v-48h-836v48zM657 1690h54l657 -1690h-61l-242 625h-764l-240 -625h-61zM684 1620l-362 -944h725zM657 1690h54l657 -1690h-61l-242 625h-762l-242 -625h-61zM684 1620l-362 -944h725z" />
    <glyph glyph-name="amacron" unicode="&#x101;" horiz-adv-x="1433" 
d="M262 1346h836v-48h-836v48zM154 524q0 161 69.5 289t189.5 198t267 70q157 0 281 -81t188 -220v269h57v-1049h-57v268q-64 -139 -188 -220t-281 -81q-147 0 -267 70t-189.5 198t-69.5 289zM209 524q0 -220 134 -362t339 -142q206 0 339.5 141.5t133.5 362.5
q0 222 -133.5 363t-339.5 141q-205 0 -339 -141.5t-134 -362.5z" />
    <glyph glyph-name="Abreve" unicode="&#x102;" horiz-adv-x="1368" 
d="M285 2236l51 13q26 -122 120.5 -196.5t227.5 -74.5q131 0 226.5 74.5t121.5 196.5l51 -13q-31 -140 -140.5 -225.5t-258.5 -85.5t-258.5 85.5t-140.5 225.5zM657 1690h54l657 -1690h-61l-242 625h-764l-240 -625h-61zM684 1620l-362 -944h725zM657 1690h54l657 -1690h-61
l-242 625h-762l-242 -625h-61zM684 1620l-362 -944h725z" />
    <glyph glyph-name="abreve" unicode="&#x103;" horiz-adv-x="1433" 
d="M281 1513l51 13q26 -122 120.5 -196.5t227.5 -74.5q131 0 226.5 74.5t121.5 196.5l51 -13q-31 -140 -140.5 -225.5t-258.5 -85.5t-258.5 85.5t-140.5 225.5zM154 524q0 161 69.5 289t189.5 198t267 70q157 0 281 -81t188 -220v269h57v-1049h-57v268q-64 -139 -188 -220
t-281 -81q-147 0 -267 70t-189.5 198t-69.5 289zM209 524q0 -220 134 -362t339 -142q206 0 339.5 141.5t133.5 362.5q0 222 -133.5 363t-339.5 141q-205 0 -339 -141.5t-134 -362.5z" />
    <glyph glyph-name="Aogonek" unicode="&#x104;" horiz-adv-x="1368" 
d="M657 1690h54l657 -1690h-2q-65 -76 -114.5 -165t-49.5 -159q0 -86 56.5 -136t148.5 -50q78 0 136 30.5t110 88.5l35 -25q-4 -6 -11.5 -16t-33.5 -35t-56 -44.5t-78.5 -35.5t-101.5 -16q-122 0 -190 69.5t-68 169.5q0 131 164 324h-6l-242 625h-764l-240 -625h-61z
M684 1620l-362 -944h725zM657 1690h54l657 -1690h-61l-242 625h-762l-242 -625h-61zM684 1620l-362 -944h725z" />
    <glyph glyph-name="aogonek" unicode="&#x105;" horiz-adv-x="1433" 
d="M154 524q0 161 69.5 289t189.5 198t267 70q157 0 281 -81t188 -220v269h57v-1049h-4q-65 -76 -114.5 -165t-49.5 -159q0 -86 56.5 -136t148.5 -50q78 0 136 30.5t110 88.5l35 -25q-4 -6 -11.5 -16t-33.5 -35t-56 -44.5t-78.5 -35.5t-101.5 -16q-122 0 -190 69.5
t-68 169.5q0 74 50 161.5t114 162.5v268q-64 -139 -188 -220t-281 -81q-147 0 -267 70t-189.5 198t-69.5 289zM209 524q0 -220 134 -362t339 -142q206 0 339.5 141.5t133.5 362.5q0 222 -133.5 363t-339.5 141q-205 0 -339 -141.5t-134 -362.5z" />
    <glyph glyph-name="Cacute" unicode="&#x106;" horiz-adv-x="1691" 
d="M152 844q0 147 41.5 280.5t119.5 241.5t184.5 187.5t242.5 123t288 43.5q312 0 545 -182l-35 -45q-207 170 -510 170q-176 0 -328 -63.5t-258 -173t-166.5 -260.5t-60.5 -322t60.5 -322t166.5 -260.5t258 -173t328 -63.5q303 0 510 170l35 -45q-234 -183 -545 -183
q-189 0 -353 68t-278.5 185t-179.5 279t-65 345zM1012 2060l43 -63l-244 -154l-31 43z" />
    <glyph glyph-name="cacute" unicode="&#x107;" horiz-adv-x="1218" 
d="M141 524q0 161 74 289t201.5 198t283.5 70q212 0 363 -123l-35 -38q-135 108 -328 108q-220 0 -362.5 -142t-142.5 -362t142.5 -362t362.5 -142q193 0 326 109l37 -39q-155 -123 -363 -123q-238 0 -398.5 157.5t-160.5 399.5zM737 1419l43 -63l-243 -154l-31 43z" />
    <glyph glyph-name="Ccaron" unicode="&#x10c;" horiz-adv-x="1691" 
d="M623 2093l30 43l314 -229l313 229l31 -43l-344 -252zM152 844q0 147 41.5 280.5t119.5 241.5t184.5 187.5t242.5 123t288 43.5q312 0 545 -182l-35 -45q-207 170 -510 170q-176 0 -328 -63.5t-258 -173t-166.5 -260.5t-60.5 -322t60.5 -322t166.5 -260.5t258 -173
t328 -63.5q303 0 510 170l35 -45q-234 -183 -545 -183q-189 0 -353 68t-278.5 185t-179.5 279t-65 345z" />
    <glyph glyph-name="ccaron" unicode="&#x10d;" horiz-adv-x="1218" 
d="M295 1454l31 43l313 -229l313 229l31 -43l-344 -252zM141 524q0 161 74 289t201.5 198t283.5 70q212 0 363 -123l-35 -38q-135 108 -328 108q-220 0 -362.5 -142t-142.5 -362t142.5 -362t362.5 -142q193 0 326 109l37 -39q-155 -123 -363 -123q-238 0 -398.5 157.5
t-160.5 399.5z" />
    <glyph glyph-name="Dcaron" unicode="&#x10e;" horiz-adv-x="1574" 
d="M381 2093l31 43l313 -229l313 229l31 -43l-344 -252zM238 1690h333q172 0 328 -63.5t271.5 -173.5t184 -268.5t68.5 -338.5q0 -181 -68 -340t-183.5 -269t-271.5 -173.5t-329 -63.5h-333v1690zM295 1638v-1587h276q160 0 306 60t254 163.5t172.5 252.5t64.5 319
q0 169 -64.5 317.5t-173 252t-254.5 163t-305 59.5h-276z" />
    <glyph glyph-name="dcaron" unicode="&#x10f;" horiz-adv-x="1421" 
d="M1417 1690q20 0 34.5 -15t14.5 -35q0 -141 -75 -206l-11 10q37 55 37 147q-20 0 -34.5 14.5t-14.5 34.5t14.5 35t34.5 15zM141 524q0 121 41 225t111 176.5t167.5 114t207.5 41.5q157 0 281 -81t188 -220v983h57v-1763h-57v268q-64 -139 -188 -220t-281 -81
q-110 0 -207.5 41.5t-167.5 114t-111 176.5t-41 225zM197 524q0 -220 134 -362t339 -142q206 0 339.5 141.5t133.5 362.5q0 222 -133.5 363t-339.5 141q-205 0 -339 -141.5t-134 -362.5z" />
    <glyph glyph-name="Dcroat" unicode="&#x110;" horiz-adv-x="1574" 
d="M238 1690h333q172 0 328 -63.5t271.5 -173.5t184 -268.5t68.5 -338.5q0 -181 -68 -340t-183.5 -269t-271.5 -173.5t-329 -63.5h-333v821h-168v47h168v822zM295 1638v-770h551v-47h-551v-770h276q160 0 306 60t254 163.5t172.5 252.5t64.5 319q0 169 -64.5 317.5t-173 252
t-254.5 163t-305 59.5h-276z" />
    <glyph glyph-name="dcroat" unicode="&#x111;" horiz-adv-x="1421" 
d="M141 524q0 121 41 225t111 176.5t167.5 114t207.5 41.5q157 0 281 -81t188 -220v600h-480v47h480v336h57v-336h205v-47h-205v-1380h-57v268q-64 -139 -188 -220t-281 -81q-110 0 -207.5 41.5t-167.5 114t-111 176.5t-41 225zM197 524q0 -220 134 -362t339 -142
q206 0 339.5 141.5t133.5 362.5q0 222 -133.5 363t-339.5 141q-205 0 -339 -141.5t-134 -362.5z" />
    <glyph glyph-name="Emacron" unicode="&#x112;" horiz-adv-x="1191" 
d="M221 1985h836v-48h-836v48zM238 1690h802v-52h-745v-766h721v-51h-721v-770h745v-51h-802v1690z" />
    <glyph glyph-name="emacron" unicode="&#x113;" horiz-adv-x="1359" 
d="M262 1346h836v-48h-836v48zM141 524q0 152 72.5 280.5t196.5 202.5t270 74t270 -74t196.5 -202.5t72.5 -280.5h-1024q0 -220 142.5 -362t362.5 -142q139 0 252 60t178 166l46 -29q-74 -118 -198.5 -184t-277.5 -66q-156 0 -283.5 70t-201.5 198t-74 289zM197 575h964
q-19 193 -156.5 323t-324.5 130q-188 0 -326 -130t-157 -323z" />
    <glyph glyph-name="Edotaccent" unicode="&#x116;" horiz-adv-x="1191" 
d="M238 1690h802v-52h-745v-766h721v-51h-721v-770h745v-51h-802v1690zM639 1980q20 0 34.5 -14.5t14.5 -34.5t-14.5 -34.5t-34.5 -14.5t-34.5 14.5t-14.5 34.5t14.5 34.5t34.5 14.5z" />
    <glyph glyph-name="edotaccent" unicode="&#x117;" horiz-adv-x="1359" 
d="M141 524q0 152 72.5 280.5t196.5 202.5t270 74t270 -74t196.5 -202.5t72.5 -280.5h-1024q0 -220 142.5 -362t362.5 -142q139 0 252 60t178 166l46 -29q-74 -118 -198.5 -184t-277.5 -66q-156 0 -283.5 70t-201.5 198t-74 289zM197 575h964q-19 193 -156.5 323t-324.5 130
q-188 0 -326 -130t-157 -323zM680 1341q20 0 34.5 -14.5t14.5 -34.5t-14.5 -34.5t-34.5 -14.5t-34.5 14.5t-14.5 34.5t14.5 34.5t34.5 14.5z" />
    <glyph glyph-name="Eogonek" unicode="&#x118;" horiz-adv-x="1191" 
d="M238 1690h802v-52h-745v-766h721v-51h-721v-770h745v-51h-256q-64 -75 -113.5 -164t-49.5 -160q0 -87 56 -136.5t148 -49.5q78 0 136 30.5t110 88.5l35 -25q-4 -6 -11.5 -16t-33.5 -35t-56 -44.5t-78.5 -35.5t-101.5 -16q-122 0 -190 69.5t-68 169.5q0 131 164 324h-493
v1690z" />
    <glyph glyph-name="eogonek" unicode="&#x119;" horiz-adv-x="1359" 
d="M141 524q0 152 72.5 280.5t196.5 202.5t270 74t270 -74t196.5 -202.5t72.5 -280.5h-1024q0 -220 142.5 -362t362.5 -142q139 0 252 60t178 166l46 -29q-65 -103 -169 -167t-233 -79q-141 -188 -141 -295q0 -86 56.5 -136t148.5 -50q78 0 135.5 30.5t109.5 88.5l35 -25
q-4 -6 -11 -16t-33 -35t-56 -44.5t-78.5 -35.5t-101.5 -16q-122 0 -190 69.5t-68 169.5q0 120 137 291h-17q-156 0 -283.5 70t-201.5 198t-74 289zM197 575h964q-19 193 -156.5 323t-324.5 130q-188 0 -326 -130t-157 -323z" />
    <glyph glyph-name="Ecaron" unicode="&#x11a;" horiz-adv-x="1191" 
d="M295 2093l31 43l313 -229l313 229l31 -43l-344 -252zM238 1690h802v-52h-745v-766h721v-51h-721v-770h745v-51h-802v1690z" />
    <glyph glyph-name="ecaron" unicode="&#x11b;" horiz-adv-x="1359" 
d="M336 1454l31 43l313 -229l313 229l31 -43l-344 -252zM141 524q0 152 72.5 280.5t196.5 202.5t270 74t270 -74t196.5 -202.5t72.5 -280.5h-1024q0 -220 142.5 -362t362.5 -142q139 0 252 60t178 166l46 -29q-74 -118 -198.5 -184t-277.5 -66q-156 0 -283.5 70t-201.5 198
t-74 289zM197 575h964q-19 193 -156.5 323t-324.5 130q-188 0 -326 -130t-157 -323z" />
    <glyph glyph-name="Gcommaaccent" unicode="&#x122;" horiz-adv-x="1896" 
d="M975 -82q20 0 34.5 -14.5t14.5 -34.5q0 -141 -76 -207l-10 10q37 55 37 148q-20 0 -34.5 14.5t-14.5 34.5t14.5 34.5t34.5 14.5zM152 842q0 180 62.5 342t170.5 280t261.5 187t328.5 69q415 0 653 -288l-39 -41q-106 130 -261 204t-353 74q-216 0 -391.5 -110.5
t-274 -300t-98.5 -416.5q0 -168 60.5 -320.5t163 -262.5t244 -175.5t296.5 -65.5q140 0 271 47t231 129.5t160.5 204.5t60.5 263v77h-723v54h782v-93q0 -142 -42.5 -262t-116 -206t-173 -146.5t-213.5 -89.5t-237 -29q-168 0 -320 69.5t-262.5 186.5t-175.5 279t-65 340z
" />
    <glyph glyph-name="gcommaaccent" unicode="&#x123;" horiz-adv-x="1449" 
d="M696 1243q-20 0 -34.5 14.5t-14.5 34.5q0 141 76 207l10 -10q-37 -55 -37 -148q20 0 34.5 -14.5t14.5 -34.5t-14.5 -34.5t-34.5 -14.5zM170 524q0 161 69.5 289t189.5 198t267 70q157 0 281 -81t188 -220v269h58v-1078q0 -254 -141 -394t-408 -140q-200 0 -328.5 82.5
t-191.5 222.5l53 20q51 -124 176 -201t291 -77q231 0 361 130.5t130 336.5v317q-64 -139 -188 -220t-281 -81q-147 0 -267 70t-189.5 198t-69.5 289zM225 524q0 -220 134 -362t339 -142q206 0 339.5 141.5t133.5 362.5q0 222 -133.5 363t-339.5 141q-205 0 -339 -141.5
t-134 -362.5z" />
    <glyph glyph-name="Imacron" unicode="&#x12a;" 
d="M-152 1985h836v-48h-836v48zM238 1690h57v-1690h-57v1690z" />
    <glyph glyph-name="imacron" unicode="&#x12b;" horiz-adv-x="552" 
d="M-141 1346h835v-48h-835v48zM248 1049h57v-1049h-57v1049z" />
    <glyph glyph-name="Iogonek" unicode="&#x12e;" 
d="M238 1690h57v-1690h-4q-65 -76 -114.5 -165t-49.5 -159q0 -86 56.5 -136t148.5 -50q78 0 136 30.5t110 88.5l34 -25q-4 -6 -11 -16t-33 -35t-56 -44.5t-78.5 -35.5t-101.5 -16q-122 0 -190 69.5t-68 169.5q0 131 164 324v1690z" />
    <glyph glyph-name="iogonek" unicode="&#x12f;" horiz-adv-x="552" 
d="M248 1049h57v-1049h-4q-64 -75 -114 -165t-50 -159q0 -86 56.5 -136t148.5 -50q78 0 136 30.5t110 88.5l35 -25q-4 -6 -11.5 -16t-33.5 -35t-56 -44.5t-78.5 -35.5t-101.5 -16q-122 0 -190 69.5t-68 169.5q0 131 164 324v1049zM276 1354q20 0 35 -14.5t15 -34.5t-15 -35
t-35 -15t-34.5 15t-14.5 35t14.5 34.5t34.5 14.5z" />
    <glyph glyph-name="dotlessi" unicode="&#x131;" horiz-adv-x="552" 
d="M248 1049h57v-1049h-57v1049z" />
    <glyph glyph-name="Kcommaaccent" unicode="&#x136;" horiz-adv-x="1282" 
d="M672 -82q20 0 34.5 -14.5t14.5 -34.5q0 -141 -76 -207l-10 10q37 55 37 148q-20 0 -34.5 14.5t-14.5 34.5t14.5 34.5t34.5 14.5zM238 1690h57v-854l846 854h69l-811 -820l883 -870h-80l-842 829l-65 -63v-766h-57v1690z" />
    <glyph glyph-name="kcommaaccent" unicode="&#x137;" horiz-adv-x="864" 
d="M563 -82q20 0 34.5 -14.5t14.5 -34.5q0 -142 -75 -207l-11 10q37 55 37 148q-20 0 -34.5 14.5t-14.5 34.5t14.5 34.5t34.5 14.5zM227 1761h58v-1149l360 437h70l-307 -371l497 -678h-67l-465 635l-88 -109v-526h-58v1761z" />
    <glyph glyph-name="Lacute" unicode="&#x139;" horiz-adv-x="1124" 
d="M238 1690h57v-1639h762v-51h-819v1690zM467 2060l43 -63l-244 -154l-30 43z" />
    <glyph glyph-name="lacute" unicode="&#x13a;" 
d="M238 1761h57v-1761h-57v1761zM467 2130l43 -64l-244 -153l-30 43z" />
    <glyph glyph-name="Lcommaaccent" unicode="&#x13b;" horiz-adv-x="1124" 
d="M647 -82q20 0 34.5 -14.5t14.5 -34.5q0 -142 -75 -207l-11 10q37 55 37 148q-20 0 -34.5 14.5t-14.5 34.5t14.5 34.5t34.5 14.5zM238 1690h57v-1639h762v-51h-819v1690z" />
    <glyph glyph-name="lcommaaccent" unicode="&#x13c;" 
d="M266 -82q20 0 34.5 -14.5t14.5 -34.5q0 -142 -75 -207l-11 10q37 55 37 148q-20 0 -34.5 14.5t-14.5 34.5t14.5 34.5t34.5 14.5zM238 1761h57v-1761h-57v1761z" />
    <glyph glyph-name="Lcaron" unicode="&#x13d;" horiz-adv-x="1124" 
d="M895 1690q20 0 34.5 -15t14.5 -35q0 -140 -76 -206l-10 10q37 55 37 147q-20 0 -34.5 14.5t-14.5 34.5t14.5 35t34.5 15zM238 1690h57v-1639h762v-51h-819v1690z" />
    <glyph glyph-name="lcaron" unicode="&#x13e;" 
d="M500 1690q20 0 34.5 -15t14.5 -35q0 -140 -76 -206l-10 10q37 55 37 147q-20 0 -34.5 14.5t-14.5 34.5t14.5 35t34.5 15zM238 1761h57v-1761h-57v1761z" />
    <glyph glyph-name="Lslash" unicode="&#x141;" horiz-adv-x="1124" 
d="M238 1690h57v-838l221 174v-47l-221 -174v-754h760v-51h-817v760l-172 -135v47l172 135v883z" />
    <glyph glyph-name="lslash" unicode="&#x142;" 
d="M238 1761h57v-764l197 154v-47l-197 -154v-950h-57v903l-197 -153v47l197 153v811z" />
    <glyph glyph-name="Nacute" unicode="&#x143;" horiz-adv-x="1599" 
d="M238 1690h57l1008 -1586v1586h57v-1690h-57l-1008 1583v-1583h-57v1690zM893 2060l43 -63l-244 -154l-30 43z" />
    <glyph glyph-name="nacute" unicode="&#x144;" horiz-adv-x="1232" 
d="M227 1049h58v-158q26 64 85.5 108.5t123.5 63t127 18.5q211 0 306 -114t95 -312v-655h-57v637q0 393 -344 393q-151 0 -243.5 -95t-92.5 -216v-719h-58v1049zM715 1419l43 -63l-244 -154l-31 43z" />
    <glyph glyph-name="Ncommaaccent" unicode="&#x145;" horiz-adv-x="1597" 
d="M799 -82q20 0 34.5 -14.5t14.5 -34.5q0 -141 -76 -207l-10 10q37 55 37 148q-20 0 -34.5 14.5t-14.5 34.5t14.5 34.5t34.5 14.5zM238 1690h57l1008 -1586v1586h57v-1690h-57l-1008 1583v-1583h-57v1690z" />
    <glyph glyph-name="ncommaaccent" unicode="&#x146;" horiz-adv-x="1232" 
d="M625 -82q20 0 34.5 -14.5t14.5 -34.5q0 -141 -76 -207l-10 10q37 55 37 148q-20 0 -35 14.5t-15 34.5t15 34.5t35 14.5zM227 1049h58v-158q26 64 85.5 108.5t123.5 63t127 18.5q211 0 306 -114t95 -312v-655h-57v637q0 393 -344 393q-151 0 -243.5 -95t-92.5 -216v-719
h-58v1049z" />
    <glyph glyph-name="Ncaron" unicode="&#x147;" horiz-adv-x="1599" 
d="M455 2093l30 43l314 -229l313 229l31 -43l-344 -252zM238 1690h57l1008 -1586v1586h57v-1690h-57l-1008 1583v-1583h-57v1690z" />
    <glyph glyph-name="ncaron" unicode="&#x148;" horiz-adv-x="1232" 
d="M281 1454l30 43l314 -229l313 229l31 -43l-344 -252zM227 1049h58v-158q26 64 85.5 108.5t123.5 63t127 18.5q211 0 306 -114t95 -312v-655h-57v637q0 393 -344 393q-151 0 -243.5 -95t-92.5 -216v-719h-58v1049z" />
    <glyph glyph-name="Omacron" unicode="&#x14c;" horiz-adv-x="2007" 
d="M586 1985h835v-48h-835v48zM213 844q0 -170 63.5 -323t170.5 -261.5t252.5 -172.5t304.5 -64t304.5 64t252 172.5t170 261.5t63.5 323t-63.5 323t-170 261.5t-252 172.5t-304.5 64t-304.5 -64t-252.5 -172.5t-170.5 -261.5t-63.5 -323zM152 844q0 182 68 345.5t183 279
t272 183.5t329 68t329 -68t271.5 -183.5t182.5 -279t68 -345.5t-68 -345.5t-182.5 -279.5t-271.5 -184t-329 -68t-329 68t-272 184t-183 279.5t-68 345.5z" />
    <glyph glyph-name="omacron" unicode="&#x14d;" horiz-adv-x="1404" 
d="M285 1346h835v-48h-835v48zM141 524q0 162 74 290t201.5 197.5t285.5 69.5q118 0 221.5 -41t178.5 -113.5t118.5 -177t43.5 -225.5t-43.5 -225.5t-118.5 -177t-178.5 -113.5t-221.5 -41q-158 0 -285.5 69.5t-201.5 197.5t-74 290zM195 524q0 -220 143 -362t364 -142
t364.5 142t143.5 362t-143.5 362t-364.5 142t-364 -142t-143 -362z" />
    <glyph glyph-name="Ohungarumlaut" unicode="&#x150;" horiz-adv-x="2007" 
d="M788 1884l232 174l43 -63l-246 -154zM1067 1884l229 174l45 -63l-245 -154zM213 844q0 -170 63.5 -323t170.5 -261.5t252.5 -172.5t304.5 -64t304.5 64t252 172.5t170 261.5t63.5 323t-63.5 323t-170 261.5t-252 172.5t-304.5 64t-304.5 -64t-252.5 -172.5t-170.5 -261.5
t-63.5 -323zM152 844q0 182 68 345.5t183 279t272 183.5t329 68t329 -68t271.5 -183.5t182.5 -279t68 -345.5t-68 -345.5t-182.5 -279.5t-271.5 -184t-329 -68t-329 68t-272 184t-183 279.5t-68 345.5z" />
    <glyph glyph-name="ohungarumlaut" unicode="&#x151;" horiz-adv-x="1404" 
d="M467 1245l231 174l43 -63l-245 -154zM745 1245l230 174l45 -63l-246 -154zM141 524q0 162 74 290t201.5 197.5t285.5 69.5q118 0 221.5 -41t178.5 -113.5t118.5 -177t43.5 -225.5t-43.5 -225.5t-118.5 -177t-178.5 -113.5t-221.5 -41q-158 0 -285.5 69.5t-201.5 197.5
t-74 290zM195 524q0 -220 143 -362t364 -142t364.5 142t143.5 362t-143.5 362t-364.5 142t-364 -142t-143 -362z" />
    <glyph glyph-name="OE" unicode="&#x152;" horiz-adv-x="1951" 
d="M152 844q0 175 67.5 332.5t181.5 270t270 178t326 65.5h803v-52h-745v-766h721v-51h-721v-770h745v-51h-803q-183 0 -341 65t-268 177.5t-173 268.5t-63 333zM213 844q0 -220 99 -400.5t279 -285.5t406 -105v1583q-158 0 -302.5 -61.5t-250.5 -166.5t-168.5 -252.5
t-62.5 -311.5z" />
    <glyph glyph-name="oe" unicode="&#x153;" horiz-adv-x="2420" 
d="M141 524q0 162 74 290t201.5 197.5t285.5 69.5q188 0 333 -99t200 -267q56 163 195 264.5t311 101.5q109 0 209 -44t172 -118.5t114.5 -177.5t42.5 -217h-1024q0 -220 143 -362t363 -142q139 0 252 60t178 166l45 -29q-74 -118 -198 -184t-277 -66q-183 0 -324 95
t-200 257q-4 8 -4 13q-56 -166 -200 -265.5t-331 -99.5q-157 0 -285 70t-202 198t-74 289zM195 524q0 -220 143 -362t364 -142q220 0 364 142.5t144 361.5t-144 361.5t-364 142.5q-221 0 -364 -142t-143 -362zM1257 575h965q-19 193 -156.5 323t-324.5 130
q-188 0 -326.5 -130t-157.5 -323z" />
    <glyph glyph-name="Racute" unicode="&#x154;" horiz-adv-x="1167" 
d="M238 1690h362q246 0 384 -124.5t138 -334.5q0 -205 -132.5 -337.5t-364.5 -139.5l567 -754h-74l-567 754h-256v-754h-57v1690zM295 1640v-831h305q218 0 343.5 117.5t125.5 304.5t-124.5 298t-344.5 111h-305zM694 2034l43 -64l-243 -153l-31 43z" />
    <glyph glyph-name="racute" unicode="&#x155;" horiz-adv-x="745" 
d="M227 1049h58v-158q30 68 79 111.5t102.5 61t115.5 17.5q96 0 163 -24l-22 -49q-61 22 -141 22q-56 0 -105.5 -19.5t-83.5 -50.5t-59 -68.5t-37 -73.5t-12 -66v-752h-58v1049zM582 1419l43 -63l-244 -154l-31 43z" />
    <glyph glyph-name="Rcommaaccent" unicode="&#x156;" horiz-adv-x="1269" 
d="M707 -82q20 0 34.5 -14.5t14.5 -34.5q0 -141 -76 -207l-10 10q37 55 37 148q-20 0 -35 14.5t-15 34.5t15 34.5t35 14.5zM238 1690h362q246 0 384 -124.5t138 -334.5q0 -205 -132.5 -337.5t-364.5 -139.5l567 -754h-74l-567 754h-256v-754h-57v1690zM295 1640v-831h305
q218 0 343.5 117.5t125.5 304.5t-124.5 298t-344.5 111h-305z" />
    <glyph glyph-name="rcommaaccent" unicode="&#x157;" horiz-adv-x="745" 
d="M256 -82q20 0 34.5 -14.5t14.5 -34.5q0 -141 -76 -207l-10 10q37 55 37 148q-20 0 -34.5 14.5t-14.5 34.5t14.5 34.5t34.5 14.5zM227 1049h58v-158q30 68 79 111.5t102.5 61t115.5 17.5q96 0 163 -24l-22 -49q-61 22 -141 22q-56 0 -105.5 -19.5t-83.5 -50.5t-59 -68.5
t-37 -73.5t-12 -66v-752h-58v1049z" />
    <glyph glyph-name="Rcaron" unicode="&#x158;" horiz-adv-x="1167" 
d="M256 2093l31 43l313 -229l313 229l31 -43l-344 -252zM238 1690h362q246 0 384 -124.5t138 -334.5q0 -205 -132.5 -337.5t-364.5 -139.5l567 -754h-74l-567 754h-256v-754h-57v1690zM295 1640v-831h305q218 0 343.5 117.5t125.5 304.5t-124.5 298t-344.5 111h-305z" />
    <glyph glyph-name="rcaron" unicode="&#x159;" horiz-adv-x="745" 
d="M141 1454l31 43l313 -229l314 229l30 -43l-344 -252zM227 1049h58v-158q30 68 79 111.5t102.5 61t115.5 17.5q96 0 163 -24l-22 -49q-61 22 -141 22q-56 0 -105.5 -19.5t-83.5 -50.5t-59 -68.5t-37 -73.5t-12 -66v-752h-58v1049z" />
    <glyph glyph-name="Sacute" unicode="&#x15a;" horiz-adv-x="1312" 
d="M238 1288q0 187 124.5 309.5t309.5 122.5q148 0 254.5 -74.5t148.5 -172.5l-47 -23q-34 87 -130 152t-226 65q-90 0 -164.5 -33.5t-121 -88t-72 -121t-25.5 -136.5q0 -74 28.5 -134t83.5 -103t119.5 -73.5t151.5 -57.5q260 -79 382 -197.5t122 -302.5
q0 -204 -140.5 -328.5t-363.5 -124.5q-103 0 -193.5 32.5t-148.5 78.5t-102.5 101t-64.5 93t-26 62l45 24q7 -21 22 -49t41.5 -68.5t67 -77.5t90.5 -70t120 -53t149 -20q195 0 322.5 106t127.5 294q0 164 -113.5 269t-363.5 181q-212 65 -309.5 167t-97.5 251zM766 2060
l43 -63l-244 -154l-30 43z" />
    <glyph glyph-name="sacute" unicode="&#x15b;" horiz-adv-x="954" 
d="M510 1081q91 0 162.5 -51.5t105.5 -122.5l-47 -22q-27 59 -86.5 102t-134.5 43q-120 0 -182 -57.5t-62 -145.5q0 -77 59.5 -130t188.5 -93q41 -12 63.5 -19.5t62 -23.5t62.5 -30t52.5 -37.5t45 -49.5t27 -62.5t11.5 -78.5q0 -106 -51 -184t-127.5 -115t-165.5 -37
q-130 0 -226.5 75t-142.5 210l49 16q40 -119 124 -184.5t196 -65.5q117 0 204.5 76.5t87.5 208.5q0 34 -9.5 63.5t-23 51t-39 41t-45.5 31.5t-55.5 26t-56 20.5t-59.5 18.5q-43 13 -76.5 26.5t-74.5 37t-68.5 51t-46.5 68.5t-19 89q0 106 78.5 180t218.5 74zM625 1419
l43 -63l-244 -154l-31 43z" />
    <glyph glyph-name="Scedilla" unicode="&#x15e;" horiz-adv-x="1312" 
d="M238 1288q0 187 124.5 309.5t309.5 122.5q148 0 254.5 -74.5t148.5 -172.5l-47 -23q-34 87 -130 152t-226 65q-90 0 -164.5 -33.5t-121 -88t-72 -121t-25.5 -136.5q0 -74 28.5 -134t83.5 -103t119.5 -73.5t151.5 -57.5q260 -79 382 -197.5t122 -302.5
q0 -204 -140.5 -328.5t-363.5 -124.5h-13l-47 -145q54 12 84 12q95 0 155 -62t60 -159q0 -94 -70 -154.5t-177 -60.5q-91 0 -159.5 38.5t-105.5 110.5l45 25q67 -121 220 -121q78 0 136 41.5t58 120.5q0 75 -45 121.5t-117 46.5q-33 0 -80.5 -12t-83.5 -35l-4 2l76 235
q-90 10 -168.5 46t-129 80t-89.5 94.5t-57 86t-23 56.5l45 24q7 -21 22 -49t41.5 -68.5t67 -77.5t90.5 -70t120 -53t149 -20q195 0 322.5 106t127.5 294q0 164 -113.5 269t-363.5 181q-212 65 -309.5 167t-97.5 251z" />
    <glyph glyph-name="scedilla" unicode="&#x15f;" horiz-adv-x="962" 
d="M510 1081q91 0 162.5 -51.5t105.5 -122.5l-47 -22q-27 59 -86.5 102t-134.5 43q-120 0 -182 -57.5t-62 -145.5q0 -77 59.5 -130t188.5 -93q41 -12 63.5 -19.5t62 -23.5t62.5 -30t52.5 -37.5t45 -49.5t27 -62.5t11.5 -78.5q0 -106 -51 -184t-127.5 -115t-165.5 -37h-9
l-47 -145q54 12 84 12q95 0 155 -62t60 -159q0 -94 -70.5 -154.5t-177.5 -60.5q-91 0 -159 38.5t-105 110.5l45 25q67 -121 219 -121q79 0 137 41.5t58 120.5q0 75 -45 121.5t-117 46.5q-33 0 -80.5 -12t-83.5 -35l-4 2l76 237q-108 17 -186.5 89t-118.5 190l49 16
q40 -119 124 -184.5t196 -65.5q117 0 204.5 76.5t87.5 208.5q0 34 -9.5 63.5t-23 51t-39 41t-45.5 31.5t-55.5 26t-56 20.5t-59.5 18.5q-43 13 -76.5 26.5t-74.5 37t-68.5 51t-46.5 68.5t-19 89q0 106 78.5 180t218.5 74z" />
    <glyph glyph-name="Scaron" unicode="&#x160;" horiz-adv-x="1312" 
d="M328 2093l30 43l314 -229l313 229l31 -43l-344 -252zM238 1288q0 187 124.5 309.5t309.5 122.5q148 0 254.5 -74.5t148.5 -172.5l-47 -23q-34 87 -130 152t-226 65q-90 0 -164.5 -33.5t-121 -88t-72 -121t-25.5 -136.5q0 -74 28.5 -134t83.5 -103t119.5 -73.5
t151.5 -57.5q260 -79 382 -197.5t122 -302.5q0 -204 -140.5 -328.5t-363.5 -124.5q-103 0 -193.5 32.5t-148.5 78.5t-102.5 101t-64.5 93t-26 62l45 24q7 -21 22 -49t41.5 -68.5t67 -77.5t90.5 -70t120 -53t149 -20q195 0 322.5 106t127.5 294q0 164 -113.5 269t-363.5 181
q-212 65 -309.5 167t-97.5 251z" />
    <glyph glyph-name="scaron" unicode="&#x161;" horiz-adv-x="954" 
d="M166 1454l31 43l313 -229l313 229l31 -43l-344 -252zM510 1081q91 0 162.5 -51.5t105.5 -122.5l-47 -22q-27 59 -86.5 102t-134.5 43q-120 0 -182 -57.5t-62 -145.5q0 -77 59.5 -130t188.5 -93q41 -12 63.5 -19.5t62 -23.5t62.5 -30t52.5 -37.5t45 -49.5t27 -62.5
t11.5 -78.5q0 -106 -51 -184t-127.5 -115t-165.5 -37q-130 0 -226.5 75t-142.5 210l49 16q40 -119 124 -184.5t196 -65.5q117 0 204.5 76.5t87.5 208.5q0 34 -9.5 63.5t-23 51t-39 41t-45.5 31.5t-55.5 26t-56 20.5t-59.5 18.5q-43 13 -76.5 26.5t-74.5 37t-68.5 51
t-46.5 68.5t-19 89q0 106 78.5 180t218.5 74z" />
    <glyph glyph-name="Tcommaaccent" unicode="&#x162;" horiz-adv-x="1187" 
d="M594 -82q20 0 34.5 -14.5t14.5 -34.5q0 -141 -76 -207l-10 10q37 55 37 148q-20 0 -34.5 14.5t-14.5 34.5t14.5 34.5t34.5 14.5zM0 1690h1188v-58h-565v-1632h-58v1632h-565v58z" />
    <glyph glyph-name="tcommaaccent" unicode="&#x163;" horiz-adv-x="604" 
d="M399 -82q20 0 35 -14.5t15 -34.5q0 -141 -76 -207l-11 10q37 55 37 148q-20 0 -34.5 14.5t-14.5 34.5t14.5 34.5t34.5 14.5zM141 1049h88v391h58v-391h278v-43h-278v-779q0 -107 34 -159t115 -52q32 0 61 9t41 17l13 9l14 -45q-5 -4 -14.5 -10.5t-45 -17.5t-77.5 -11
q-50 0 -87 15t-58 38.5t-33.5 59.5t-16.5 70t-4 77v779h-88v43z" />
    <glyph glyph-name="Tcaron" unicode="&#x164;" horiz-adv-x="1191" 
d="M250 2093l31 43l313 -229l313 229l31 -43l-344 -252zM0 1690h1188v-58h-565v-1632h-58v1632h-565v58z" />
    <glyph glyph-name="tcaron" unicode="&#x165;" horiz-adv-x="602" 
d="M141 1049h88v391h58v-391h278v-43h-278v-779q0 -107 34 -159t115 -52q32 0 61 9t41 17l13 9l14 -45q-5 -4 -14.5 -10.5t-45 -17.5t-77.5 -11q-50 0 -87 15t-58 38.5t-33.5 59.5t-16.5 70t-4 77v779h-88v43zM508 1690q20 0 34.5 -15t14.5 -35q0 -140 -76 -206l-10 10
q37 55 37 147q-20 0 -34.5 14.5t-14.5 34.5t14.5 35t34.5 15z" />
    <glyph glyph-name="Umacron" unicode="&#x16a;" horiz-adv-x="1548" 
d="M356 1985h836v-48h-836v48zM221 1690h58v-1082q0 -286 125.5 -434.5t369.5 -148.5t370 148.5t126 434.5v1082h57v-1082q0 -641 -553 -641t-553 641v1082z" />
    <glyph glyph-name="umacron" unicode="&#x16b;" horiz-adv-x="1200" 
d="M182 1343h836v-47h-836v47zM211 1049h57v-625q0 -99 15.5 -171t43 -116.5t70.5 -71t91 -36t112 -9.5t112 9.5t91 36t70.5 71t43 116.5t15.5 171v625h57v-625q0 -248 -95.5 -352.5t-293.5 -104.5t-293.5 104.5t-95.5 352.5v625zM211 1049h57v-625q0 -99 15.5 -171
t43 -116.5t70.5 -71t91 -36t112 -9.5t112 9.5t91 36t70.5 71t43 116.5t15.5 171v625h57v-625q0 -253 -90 -355t-299 -102t-299 102t-90 355v625z" />
    <glyph glyph-name="Uring" unicode="&#x16e;" horiz-adv-x="1540" 
d="M221 1690h58v-1082q0 -286 125.5 -434.5t369.5 -148.5t370 148.5t126 434.5v1082h57v-1082q0 -641 -553 -641t-553 641v1082zM629 2023q0 -54 41 -88t104 -34t104.5 34t41.5 88t-41.5 88.5t-104.5 34.5t-104 -34.5t-41 -88.5zM575 2023q0 76 57.5 126.5t141.5 50.5
t141.5 -50.5t57.5 -126.5t-57.5 -126t-141.5 -50t-141.5 50t-57.5 126z" />
    <glyph glyph-name="uring" unicode="&#x16f;" horiz-adv-x="1200" 
d="M211 1049h57v-625q0 -99 15.5 -171t43 -116.5t70.5 -71t91 -36t112 -9.5t112 9.5t91 36t70.5 71t43 116.5t15.5 171v625h57v-625q0 -253 -90 -355t-299 -102t-299 102t-90 355v625zM455 1491q0 -54 41 -88.5t104 -34.5t104 34.5t41 88.5t-41 88.5t-104 34.5t-104 -34.5
t-41 -88.5zM401 1491q0 76 57.5 126t141.5 50t141.5 -50t57.5 -126t-57.5 -126t-141.5 -50t-141.5 50t-57.5 126z" />
    <glyph glyph-name="Uhungarumlaut" unicode="&#x170;" horiz-adv-x="1548" 
d="M559 1884l232 174l43 -63l-246 -154zM838 1884l229 174l45 -63l-246 -154zM221 1690h58v-1082q0 -286 125.5 -434.5t369.5 -148.5t370 148.5t126 434.5v1082h57v-1082q0 -641 -553 -641t-553 641v1082z" />
    <glyph glyph-name="uhungarumlaut" unicode="&#x171;" horiz-adv-x="1200" 
d="M365 1245l231 174l43 -63l-246 -154zM643 1245l229 174l46 -63l-246 -154zM211 1049h57v-625q0 -99 15.5 -171t43 -116.5t70.5 -71t91 -36t112 -9.5t112 9.5t91 36t70.5 71t43 116.5t15.5 171v625h57v-625q0 -253 -90 -355t-299 -102t-299 102t-90 355v625z" />
    <glyph glyph-name="Uogonek" unicode="&#x172;" horiz-adv-x="1548" 
d="M221 1690h58v-1082q0 -286 125.5 -434.5t369.5 -148.5t370 148.5t126 434.5v1082h57v-1082q0 -641 -553 -641h-31q-135 -186 -135 -291q0 -86 56.5 -136t148.5 -50q78 0 136 30.5t110 88.5l35 -25q-4 -6 -11.5 -16t-33.5 -35t-56 -44.5t-78.5 -35.5t-101.5 -16
q-122 0 -190 69.5t-68 169.5q0 120 141 295q-241 22 -358 181.5t-117 455.5v1082z" />
    <glyph glyph-name="uogonek" unicode="&#x173;" horiz-adv-x="1200" 
d="M211 1049h57v-625q0 -99 15.5 -171t43 -116.5t70.5 -71t91 -36t112 -9.5t112 9.5t91 36t70.5 71t43 116.5t15.5 171v625h57v-625q0 -253 -90 -355t-299 -102h-29q-137 -183 -137 -291q0 -86 56.5 -136t148.5 -50q78 0 136 30.5t110 88.5l35 -25q-4 -6 -11.5 -16
t-33.5 -35t-56 -44.5t-78.5 -35.5t-101.5 -16q-122 0 -190 69.5t-68 169.5q0 120 137 295q-163 17 -235 121t-72 332v625z" />
    <glyph glyph-name="Ydieresis" unicode="&#x178;" horiz-adv-x="1216" 
d="M367 2120q20 0 34.5 -14.5t14.5 -34.5t-14.5 -35t-34.5 -15t-35 15t-15 35t15 34.5t35 14.5zM850 2120q20 0 34.5 -14.5t14.5 -34.5t-14.5 -35t-34.5 -15t-34.5 15t-14.5 35t14.5 34.5t34.5 14.5zM16 1690h70l522 -899l522 899h70l-563 -969v-721h-57v721z" />
    <glyph glyph-name="Zacute" unicode="&#x179;" horiz-adv-x="1538" 
d="M217 1690h1219l-1219 -1633h1161v-57h-1276l1219 1632h-1104v58zM981 2058l43 -63l-244 -154l-30 43z" />
    <glyph glyph-name="zacute" unicode="&#x17a;" horiz-adv-x="1157" 
d="M147 1049h938l-886 -992h870v-57h-997l884 991h-809v58zM752 1419l43 -63l-244 -154l-31 43z" />
    <glyph glyph-name="Zdotaccent" unicode="&#x17b;" horiz-adv-x="1538" 
d="M217 1690h1219l-1219 -1633h1161v-57h-1276l1219 1632h-1104v58zM825 1980q20 0 34.5 -14.5t14.5 -34.5t-14.5 -34.5t-34.5 -14.5t-34.5 14.5t-14.5 34.5t14.5 34.5t34.5 14.5z" />
    <glyph glyph-name="zdotaccent" unicode="&#x17c;" horiz-adv-x="1157" 
d="M147 1049h938l-886 -992h870v-57h-997l884 991h-809v58zM616 1481q20 0 35 -14.5t15 -34.5t-15 -35t-35 -15t-34.5 15t-14.5 35t14.5 34.5t34.5 14.5z" />
    <glyph glyph-name="Zcaron" unicode="&#x17d;" horiz-adv-x="1538" 
d="M481 2093l31 43l313 -229l314 229l30 -43l-344 -252zM217 1690h1219l-1219 -1633h1161v-57h-1276l1219 1632h-1104v58z" />
    <glyph glyph-name="zcaron" unicode="&#x17e;" horiz-adv-x="1157" 
d="M272 1454l31 43l313 -229l314 229l31 -43l-345 -252zM147 1049h938l-886 -992h870v-57h-997l884 991h-809v58z" />
    <glyph glyph-name="Scommaaccent" unicode="&#x218;" horiz-adv-x="1312" 
d="M672 -82q20 0 34.5 -14.5t14.5 -34.5q0 -141 -76 -207l-10 10q37 55 37 148q-20 0 -34.5 14.5t-14.5 34.5t14.5 34.5t34.5 14.5zM238 1288q0 187 124.5 309.5t309.5 122.5q148 0 254.5 -74.5t148.5 -172.5l-47 -23q-34 87 -130 152t-226 65q-90 0 -164.5 -33.5t-121 -88
t-72 -121t-25.5 -136.5q0 -74 28.5 -134t83.5 -103t119.5 -73.5t151.5 -57.5q260 -79 382 -197.5t122 -302.5q0 -204 -140.5 -328.5t-363.5 -124.5q-103 0 -193.5 32.5t-148.5 78.5t-102.5 101t-64.5 93t-26 62l45 24q7 -21 22 -49t41.5 -68.5t67 -77.5t90.5 -70t120 -53
t149 -20q195 0 322.5 106t127.5 294q0 164 -113.5 269t-363.5 181q-212 65 -309.5 167t-97.5 251z" />
    <glyph glyph-name="scommaaccent" unicode="&#x219;" horiz-adv-x="962" 
d="M494 -82q20 0 34.5 -14.5t14.5 -34.5q0 -141 -76 -207l-10 10q37 55 37 148q-20 0 -35 14.5t-15 34.5t15 34.5t35 14.5zM510 1081q91 0 162.5 -51.5t105.5 -122.5l-47 -22q-27 59 -86.5 102t-134.5 43q-120 0 -182 -57.5t-62 -145.5q0 -77 59.5 -130t188.5 -93
q41 -12 63.5 -19.5t62 -23.5t62.5 -30t52.5 -37.5t45 -49.5t27 -62.5t11.5 -78.5q0 -106 -51 -184t-127.5 -115t-165.5 -37q-130 0 -226.5 75t-142.5 210l49 16q40 -119 124 -184.5t196 -65.5q117 0 204.5 76.5t87.5 208.5q0 34 -9.5 63.5t-23 51t-39 41t-45.5 31.5
t-55.5 26t-56 20.5t-59.5 18.5q-43 13 -76.5 26.5t-74.5 37t-68.5 51t-46.5 68.5t-19 89q0 106 78.5 180t218.5 74z" />
    <glyph glyph-name="circumflex" unicode="&#x2c6;" horiz-adv-x="1019" 
d="M166 1468l344 252l344 -252l-31 -43l-313 230l-313 -230z" />
    <glyph glyph-name="caron" unicode="&#x2c7;" horiz-adv-x="835" 
d="M74 1677l30 43l314 -229l313 229l31 -43l-344 -252z" />
    <glyph glyph-name="breve" unicode="&#x2d8;" horiz-adv-x="1101" 
d="M152 1708l51 12q26 -122 120.5 -196t227.5 -74q132 0 227 74t121 196l51 -12q-31 -140 -140.5 -225.5t-258.5 -85.5t-258.5 85.5t-140.5 225.5z" />
    <glyph glyph-name="dotaccent" unicode="&#x2d9;" horiz-adv-x="327" 
d="M164 1481q20 0 34.5 -14.5t14.5 -34.5t-14.5 -35t-34.5 -15t-34.5 15t-14.5 35t14.5 34.5t34.5 14.5z" />
    <glyph glyph-name="ring" unicode="&#x2da;" horiz-adv-x="700" 
d="M205 1499q0 -54 41 -88.5t104 -34.5t104.5 34.5t41.5 88.5t-41.5 88.5t-104.5 34.5t-104 -34.5t-41 -88.5zM152 1499q0 76 57 126t141 50t141.5 -50t57.5 -126t-57.5 -126t-141.5 -50t-141 50t-57 126z" />
    <glyph glyph-name="ogonek" unicode="&#x2db;" horiz-adv-x="724" 
d="M186 -324q0 45 22 100.5t53 102.5t62.5 87.5t53.5 63.5l22 23l37 -16q-70 -76 -133 -178.5t-63 -182.5q0 -87 56 -136.5t148 -49.5q78 0 136 30.5t110 88.5l35 -25q-4 -6 -11.5 -16t-33.5 -35t-56 -44.5t-78.5 -35.5t-101.5 -16q-122 0 -190 69.5t-68 169.5z" />
    <glyph glyph-name="tilde" unicode="&#x2dc;" horiz-adv-x="1159" 
d="M90 1391q45 77 118 126.5t165 49.5q114 0 223 -88q92 -76 190 -76q79 0 141.5 44.5t102.5 115.5l39 -35q-45 -77 -118 -126.5t-165 -49.5q-114 0 -223 88q-92 76 -190 76q-79 0 -141.5 -44.5t-102.5 -115.5z" />
    <glyph glyph-name="hungarumlaut" unicode="&#x2dd;" horiz-adv-x="786" 
d="M117 1546l231 174l43 -63l-246 -154zM395 1546l230 174l45 -63l-246 -154z" />
    <glyph glyph-name="endash" unicode="&#x2013;" horiz-adv-x="1232" 
d="M227 616h795v-47h-795v47z" />
    <glyph glyph-name="emdash" unicode="&#x2014;" horiz-adv-x="1976" 
d="M227 616h1538v-47h-1538v47z" />
    <glyph glyph-name="quoteleft" unicode="&#x2018;" horiz-adv-x="299" 
d="M115 1513q0 141 73 207l13 -12q-37 -55 -37 -145q20 0 34.5 -15t14.5 -35t-14.5 -34.5t-34.5 -14.5t-34.5 14.5t-14.5 34.5z" />
    <glyph glyph-name="quoteright" unicode="&#x2019;" horiz-adv-x="299" 
d="M135 1720q20 0 34.5 -14.5t14.5 -34.5q0 -142 -75 -207l-11 11q37 55 37 147q-20 0 -34.5 14.5t-14.5 34.5t14.5 34.5t34.5 14.5z" />
    <glyph glyph-name="quotesinglbase" unicode="&#x201a;" horiz-adv-x="327" 
d="M164 66q20 0 34.5 -15t14.5 -35q0 -140 -76 -206l-10 10q37 55 37 147q-20 0 -34.5 14.5t-14.5 34.5t14.5 35t34.5 15z" />
    <glyph glyph-name="quotedblleft" unicode="&#x201c;" horiz-adv-x="471" 
d="M115 1513q0 142 75 207l11 -12q-37 -55 -37 -145q20 0 34.5 -15t14.5 -35t-14.5 -34.5t-34.5 -14.5t-34.5 14.5t-14.5 34.5zM287 1513q0 141 73 207l13 -12q-37 -55 -37 -145q20 0 34.5 -15t14.5 -35t-14.5 -34.5t-34.5 -14.5t-34.5 14.5t-14.5 34.5z" />
    <glyph glyph-name="quotedblright" unicode="&#x201d;" horiz-adv-x="471" 
d="M307 1720q20 0 34.5 -14.5t14.5 -34.5q0 -142 -75 -207l-11 11q37 55 37 147q-20 0 -34.5 14.5t-14.5 34.5t14.5 34.5t34.5 14.5zM135 1720q20 0 34.5 -14.5t14.5 -34.5q0 -142 -75 -207l-11 11q37 55 37 147q-20 0 -34.5 14.5t-14.5 34.5t14.5 34.5t34.5 14.5z" />
    <glyph glyph-name="quotedblbase" unicode="&#x201e;" horiz-adv-x="458" 
d="M295 63q20 0 34.5 -14.5t14.5 -34.5q0 -141 -76 -207l-10 11q37 55 37 147q-20 0 -34.5 14.5t-14.5 34.5t14.5 34.5t34.5 14.5zM164 63q20 0 34.5 -14.5t14.5 -34.5q0 -141 -76 -207l-10 11q37 55 37 147q-20 0 -34.5 14.5t-14.5 34.5t14.5 34.5t34.5 14.5z" />
    <glyph glyph-name="dagger" unicode="&#x2020;" horiz-adv-x="724" 
d="M-49 1221h383v540h57v-540h383v-58h-383v-1163h-57v1163h-383v58z" />
    <glyph glyph-name="daggerdbl" unicode="&#x2021;" horiz-adv-x="724" 
d="M-49 1221h383v540h57v-540h383v-58h-383v-524h383v-57h-383v-582h-57v582h-383v57h383v524h-383v58z" />
    <glyph glyph-name="bullet" unicode="&#x2022;" horiz-adv-x="350" 
d="M176 791q25 0 42.5 -17.5t17.5 -42.5t-17.5 -42t-42.5 -17t-43 17t-18 42t18 42.5t43 17.5z" />
    <glyph glyph-name="ellipsis" unicode="&#x2026;" horiz-adv-x="751" 
d="M164 66q20 0 34.5 -15t14.5 -35t-14.5 -34.5t-34.5 -14.5t-34.5 14.5t-14.5 34.5t14.5 35t34.5 15zM375 66q21 0 35 -14.5t14 -35.5t-14 -35t-35 -14q-20 0 -33.5 14.5t-13.5 34.5q0 21 13.5 35.5t33.5 14.5zM588 66q20 0 34.5 -15t14.5 -35t-14.5 -34.5t-34.5 -14.5
t-34.5 14.5t-14.5 34.5t14.5 35t34.5 15z" />
    <glyph glyph-name="perthousand" unicode="&#x2030;" horiz-adv-x="3055" 
d="M510 0l983 1690h49l-983 -1690h-49zM119 1317q0 177 115.5 290t289.5 113q172 0 288 -113.5t116 -289.5q0 -177 -116 -290.5t-288 -113.5q-173 0 -289 113.5t-116 290.5zM158 1317q0 -163 103 -267t263 -104q159 0 263 104.5t104 266.5t-104 266.5t-263 104.5
q-160 0 -263 -104t-103 -267zM1118 371q0 177 116 290t290 113q172 0 287.5 -113t115.5 -290t-115.5 -290.5t-287.5 -113.5q-174 0 -290 113.5t-116 290.5zM1157 371q0 -162 103.5 -266.5t263.5 -104.5q159 0 262.5 104.5t103.5 266.5t-103.5 266t-262.5 104
q-160 0 -263.5 -104t-103.5 -266zM2128 371q0 177 115.5 290t287.5 113q174 0 290 -113t116 -290t-116 -290.5t-290 -113.5q-172 0 -287.5 113.5t-115.5 290.5zM2165 371q0 -162 103.5 -266.5t262.5 -104.5q160 0 263.5 104.5t103.5 266.5t-103.5 266t-263.5 104
q-159 0 -262.5 -104t-103.5 -266z" />
    <glyph glyph-name="guilsinglleft" unicode="&#x2039;" horiz-adv-x="512" 
d="M20 569l400 512l47 -37l-371 -475l371 -475l-47 -37z" />
    <glyph glyph-name="guilsinglright" unicode="&#x203a;" horiz-adv-x="512" 
d="M45 1044l47 37l400 -512l-400 -512l-47 37l371 475z" />
    <glyph glyph-name="fraction" unicode="&#x2044;" horiz-adv-x="540" 
d="M-229 0l983 1690h49l-983 -1690h-49z" />
    <glyph glyph-name="Euro" unicode="&#x20ac;" horiz-adv-x="1689" 
d="M4 1038h166q44 196 167.5 351.5t304 243t384.5 87.5q301 0 541 -184l-37 -47q-218 174 -504 174q-285 0 -505 -175t-285 -450h1044v-47h-1055q-14 -82 -14 -145q0 -66 14 -152h1055v-47h-1047q63 -275 277.5 -447.5t515.5 -172.5q286 0 506 170l37 -45
q-234 -183 -543 -183q-217 0 -398.5 87.5t-299 241t-158.5 349.5h-166v47h158q-12 74 -12 152q0 74 12 145h-158v47z" />
    <glyph glyph-name="trademark" unicode="&#x2122;" horiz-adv-x="1024" 
d="M37 1690h371v-17h-177v-512h-18v512h-176v17zM487 1690h19l172 -459l172 459h18l78 -529h-18l-74 492l-166 -449h-20l-166 449l-74 -492h-18z" />
    <glyph glyph-name="minus" unicode="&#x2212;" horiz-adv-x="1245" 
d="M1147 823h-1049v49h1049v-49z" />
    <glyph glyph-name="notequal" unicode="&#x2260;" horiz-adv-x="1247" 
d="M98 1012v49h564l182 313h49l-182 -313h436v-49h-467l-191 -326h658v-49h-684l-187 -322h-49l187 322h-316v49h342l191 326h-533z" />
    <glyph glyph-name="lessequal" unicode="&#x2264;" horiz-adv-x="1228" 
d="M10 248h1120v-49h-1120v49zM10 1014l1120 557v-47l-1067 -529l1067 -528v-47l-1120 557v37z" />
    <glyph glyph-name="greaterequal" unicode="&#x2265;" horiz-adv-x="1228" 
d="M98 248h1121v-49h-1121v49zM1219 1014v-37l-1121 -557v47l1067 528l-1067 529v47z" />
    <glyph glyph-name="M.1" horiz-adv-x="1818" 
d="M238 1690h61l610 -1471l611 1471h61v-1690h-57v1536l-584 -1399h-61l-584 1399v-1536h-57v1690z" />
    <glyph glyph-name="Q.1" horiz-adv-x="2009" 
d="M152 846q0 182 68 344.5t183 278.5t272 183.5t329 67.5q174 0 331 -67.5t271.5 -183.5t181.5 -278.5t67 -344.5q0 -305 -167.5 -536t-438.5 -308q30 -6 84.5 -19t95 -19.5t82.5 -6.5q49 0 93 11.5t72 27.5t49 32.5t31 27.5l9 12l19 -39q-3 -5 -9 -13.5t-29.5 -30.5
t-52 -39t-78 -30.5t-106.5 -13.5q-89 0 -164.5 16t-167 32.5t-219.5 16.5q-71 0 -138 -21t-111.5 -51t-79 -60.5t-50.5 -51.5l-16 -21l-14 21q4 6 11.5 16.5t33 39t54.5 53.5t75.5 52t95.5 42q-299 63 -483 300t-184 560zM213 846q0 -172 59 -323.5t162.5 -261.5t251.5 -174
t318 -64q166 0 313 64t251 173.5t164 262t60 323.5q0 170 -62 322t-168 261t-251.5 172.5t-306.5 63.5q-159 0 -304.5 -63.5t-252.5 -172.5t-170.5 -261.5t-63.5 -321.5z" />
    <glyph glyph-name="R.1" horiz-adv-x="1398" 
d="M238 1690h362q246 0 384 -124.5t138 -334.5q0 -205 -132.5 -337.5t-364.5 -139.5l503 -668q5 -7 13 -16.5t31.5 -26t44.5 -16.5q44 0 86 28l18 -49q-4 -4 -11.5 -10t-34.5 -16.5t-58 -10.5q-36 0 -67.5 17t-44.5 34l-13 17l-541 717h-256v-754h-57v1690zM295 1640v-831
h305q218 0 343.5 117.5t125.5 304.5t-124.5 298t-344.5 111h-305z" />
    <glyph glyph-name="a.1" horiz-adv-x="1185" 
d="M141 307q0 151 119.5 246.5t298.5 95.5q116 0 210 -43t149 -117v148q0 188 -94.5 290.5t-272.5 102.5q-171 0 -305 -149l-41 32q63 82 157 125t189 43q144 0 241 -56t140 -149.5t43 -220.5v-655h-57v127q-55 -74 -149 -117t-210 -43q-179 0 -298.5 95.5t-119.5 244.5z
M195 309q0 -128 105 -208.5t259 -80.5t259.5 80.5t105.5 208.5t-105.5 207.5t-259.5 79.5t-259 -79.5t-105 -207.5z" />
    <glyph glyph-name="j.1" 
d="M256 1354q20 0 34.5 -14.5t14.5 -34.5t-14.5 -35t-34.5 -15t-34.5 15t-14.5 35t14.5 34.5t34.5 14.5zM227 1049h58v-1581h-58v1581z" />
    <glyph glyph-name="t.1" horiz-adv-x="604" 
d="M229 1440h58v-391h237v-43h-237v-1006h-58v1006h-129v43h129v391z" />
    <glyph glyph-name="u.1" horiz-adv-x="1232" 
d="M211 1049h57v-637q0 -394 344 -394q151 0 243.5 95.5t92.5 216.5v719h58v-1049h-58v158q-38 -93 -137 -142t-199 -49q-211 0 -306 114t-95 312v656z" />
    </font>
</defs>
</svg>
