<?xml version="1.0" standalone="no"?>
<!DOCTYPE svg PUBLIC "-//W3C//DTD SVG 1.1//EN" "http://www.w3.org/Graphics/SVG/1.1/DTD/svg11.dtd" >
<svg xmlns="http://www.w3.org/2000/svg" xmlns:xlink="http://www.w3.org/1999/xlink" version="1.1">
<metadata>
Created by FontForge 20170731 at Fri Dec 16 11:14:51 2022
 By Aleksey,,,
Copyright (c) 2017 by Matt Bailey. All rights reserved.
</metadata>
<defs>
<font id="SpartanMB-SemiBold" horiz-adv-x="1413" >
  <font-face 
    font-family="Spartan MB"
    font-weight="600"
    font-stretch="normal"
    units-per-em="2048"
    panose-1="0 11 5 3 8 0 0 2 0 3"
    ascent="1638"
    descent="-410"
    x-height="1049"
    cap-height="1690"
    bbox="-303 -602 2951 2386"
    underline-thickness="102"
    underline-position="-307"
    unicode-range="U+000D-FB04"
  />
<missing-glyph horiz-adv-x="700" 
 />
    <glyph glyph-name="ff" unicode="ff" horiz-adv-x="1306" 
d="M100 1049h125v311q0 205 91 318.5t251 113.5q71 0 133 -21t99 -49l-86 -170q-44 27 -105 27q-76 0 -108.5 -51t-32.5 -170v-309h354v311q0 205 91 318.5t251 113.5q64 0 123.5 -18.5t82 -32.5t36.5 -25l-84 -170q-13 11 -45.5 22t-71.5 11q-76 0 -108.5 -51t-32.5 -170
v-309h256v-183h-256v-866h-242v866h-354v-866h-242v866h-125v183z" />
    <glyph glyph-name="fi" unicode="fi" horiz-adv-x="1191" 
d="M76 1049h125v311q0 205 91 318.5t251 113.5q109 0 207.5 -39.5t169.5 -114.5l-95 -159q-92 100 -241 100q-76 0 -109 -51t-33 -170v-309h578v-1049h-242v866h-336v-866h-241v866h-125v183z" />
    <glyph glyph-name="fl" unicode="fl" horiz-adv-x="1206" 
d="M76 1049h125v311q0 205 91 318.5t251 113.5q116 0 205 -51l-60 -189q-44 27 -104 27q-76 0 -109 -51t-33 -170v-309h256v-183h-256v-866h-241v866h-125v183zM799 1761h241v-1761h-241v1761z" />
    <glyph glyph-name="ffi" unicode="ffi" horiz-adv-x="1810" 
d="M100 1049h125v311q0 205 91 318.5t251 113.5q71 0 133 -21t99 -49l-86 -170q-44 27 -105 27q-76 0 -108.5 -51t-32.5 -170v-309h352v311q0 205 91 318.5t251 113.5q109 0 207.5 -39.5t169.5 -114.5l-94 -159q-92 100 -242 100q-76 0 -108.5 -51t-32.5 -170v-309h577
v-1049h-241v866h-336v-866h-242v866h-352v-866h-242v866h-125v183z" />
    <glyph glyph-name="ffl" unicode="ffl" horiz-adv-x="1826" 
d="M100 1049h125v311q0 205 91 318.5t251 113.5q71 0 133 -21t99 -49l-86 -170q-44 27 -105 27q-76 0 -108.5 -51t-32.5 -170v-309h356v311q0 205 91 318.5t251 113.5q116 0 205 -51l-59 -189q-44 27 -105 27q-76 0 -108.5 -51t-32.5 -170v-309h256v-183h-256v-866h-242v866
h-356v-866h-242v866h-125v183zM1421 1761h242v-1761h-242v1761z" />
    <glyph glyph-name="ft" unicode="ft" horiz-adv-x="1327" 
d="M76 1049h125v311q0 205 91 318.5t251 113.5q139 0 231 -70l-86 -170q-45 27 -104 27q-76 0 -109 -51t-33 -170v-309h359v393h241v-393h244v-183h-244v-512q0 -88 25.5 -130t83.5 -42q25 0 50 8t37 16l13 9l60 -192q-10 -6 -27.5 -15.5t-73.5 -25t-112 -15.5
q-297 0 -297 344v555h-359v-866h-241v866h-125v183z" />
    <glyph glyph-name="fj" unicode="fj" horiz-adv-x="1191" 
d="M76 1049h125v311q0 205 91 318.5t251 113.5q109 0 207.5 -39.5t169.5 -114.5l-95 -159q-92 100 -241 100q-76 0 -109 -51t-33 -170v-309h578v-1250q0 -162 -80 -262t-244 -100q-62 0 -113 11t-70 20t-50 26l74 195q13 -11 43.5 -23t64.5 -12q133 0 133 182v1030h-336
v-866h-241v866h-125v183z" />
    <glyph glyph-name="fft" unicode="fft" horiz-adv-x="1947" 
d="M100 1049h125v311q0 205 91 318.5t251 113.5q71 0 133 -21t99 -49l-86 -170q-44 27 -105 27q-76 0 -108.5 -51t-32.5 -170v-309h354v311q0 205 91 318.5t251 113.5q140 0 232 -70l-86 -170q-45 27 -105 27q-76 0 -108.5 -51t-32.5 -170v-309h358v393h242v-393h244v-183
h-244v-512q0 -88 25.5 -130t83.5 -42q25 0 50 8t38 16l12 9l59 -192q-10 -6 -27.5 -15.5t-73.5 -25t-112 -15.5q-297 0 -297 344v555h-358v-866h-242v866h-354v-866h-242v866h-125v183z" />
    <glyph glyph-name="ffj" unicode="ffj" horiz-adv-x="1810" 
d="M100 1049h125v311q0 205 91 318.5t251 113.5q71 0 133 -21t99 -49l-86 -170q-44 27 -105 27q-76 0 -108.5 -51t-32.5 -170v-309h352v311q0 205 91 318.5t251 113.5q109 0 207.5 -39.5t169.5 -114.5l-94 -159q-92 100 -242 100q-76 0 -108.5 -51t-32.5 -170v-309h577
v-1250q0 -163 -80 -262.5t-243 -99.5q-62 0 -113 11t-71 20t-50 26l74 195q13 -11 44 -23t65 -12q133 0 133 182v1030h-336v-866h-242v866h-352v-866h-242v866h-125v183z" />
    <glyph glyph-name=".notdef" horiz-adv-x="700" 
 />
    <glyph glyph-name=".null" horiz-adv-x="0" 
 />
    <glyph glyph-name="nonmarkingreturn" horiz-adv-x="682" 
 />
    <glyph glyph-name="NULL" horiz-adv-x="0" 
 />
    <glyph glyph-name="NULL" horiz-adv-x="0" 
 />
    <glyph glyph-name="CR" unicode="&#xd;" horiz-adv-x="540" 
 />
    <glyph glyph-name="space" unicode=" " horiz-adv-x="540" 
 />
    <glyph glyph-name="exclam" unicode="!" horiz-adv-x="659" 
d="M209 1761h242l-31 -1292h-180zM330 287q67 0 113 -47t46 -113t-46 -113t-113 -47t-113.5 47t-46.5 113t46.5 113t113.5 47z" />
    <glyph glyph-name="quotedbl" unicode="&#x22;" horiz-adv-x="786" 
d="M109 1708h237l-43 -563h-151zM440 1708h238l-43 -563h-152z" />
    <glyph glyph-name="numbersign" unicode="#" horiz-adv-x="1519" 
d="M139 1137h285l57 438h164l-55 -438h383l57 438h164l-55 -438h196v-168h-217l-49 -367h266v-164h-286l-56 -438h-164l56 438h-385l-56 -438h-163l55 438h-197v164h217l50 367h-267v168zM569 969l-49 -367h385l49 367h-385z" />
    <glyph glyph-name="dollar" unicode="$" horiz-adv-x="1349" 
d="M211 1237q0 190 126 321.5t308 155.5v258h152v-256q152 -14 258.5 -80.5t158.5 -154.5l-149 -135q-43 65 -126.5 104t-207.5 39q-127 0 -199.5 -71.5t-72.5 -172.5q0 -84 67 -142t191 -106q69 -28 113 -46.5t107.5 -50.5t104 -59.5t86.5 -68.5t72.5 -83t44 -97.5
t17.5 -116.5q0 -112 -35.5 -202t-99.5 -150.5t-147 -97.5t-183 -50v-258h-152v250q-117 4 -215 33t-165.5 75.5t-112.5 97.5t-72 108l170 153q142 -231 412 -231q61 0 115 13t103 41t78 80.5t29 123.5q0 48 -20.5 90t-53.5 74.5t-90.5 65.5t-114 58.5t-141.5 59.5
q-176 72 -266 180.5t-90 247.5z" />
    <glyph glyph-name="percent" unicode="%" horiz-adv-x="2033" 
d="M76 1317q0 177 123 290t309 113t309 -113t123 -290t-123 -290.5t-309 -113.5t-309 113.5t-123 290.5zM250 1317q0 -115 73.5 -188.5t184.5 -73.5t184.5 73.5t73.5 188.5t-73.5 188.5t-184.5 73.5t-184.5 -73.5t-73.5 -188.5zM1092 373q0 177 123 290t309 113t309 -113
t123 -290t-123 -290.5t-309 -113.5t-309 113.5t-123 290.5zM1266 373q0 -115 73.5 -188.5t184.5 -73.5t184.5 73.5t73.5 188.5t-73.5 188.5t-184.5 73.5t-184.5 -73.5t-73.5 -188.5zM444 0l983 1690h164l-983 -1690h-164z" />
    <glyph glyph-name="ampersand" unicode="&#x26;" horiz-adv-x="1624" 
d="M96 432q0 288 408 498q-99 108 -151 197t-52 192q0 174 122.5 287.5t340.5 113.5q106 0 192.5 -35t139.5 -93t81.5 -128.5t28.5 -144.5q0 -68 -30 -132.5t-68 -107.5t-93.5 -84.5t-87 -59.5t-67.5 -36l357 -381q116 116 221 242l159 -148q-112 -142 -221 -260l332 -352
h-319l-199 213q-63 -56 -112.5 -93t-119 -75.5t-149.5 -58t-170 -19.5q-102 0 -196 27t-173 81t-126.5 146t-47.5 211zM555 1319q0 -123 167 -273q5 -4 7 -6q126 62 190 124.5t64 154.5q0 91 -55.5 154t-163.5 63q-100 0 -154.5 -63.5t-54.5 -153.5zM377 451
q0 -111 82.5 -177.5t202.5 -66.5q79 0 159.5 33.5t128 70t78.5 72.5l-389 405q-114 -56 -188 -143.5t-74 -193.5z" />
    <glyph glyph-name="quotesingle" unicode="'" horiz-adv-x="454" 
d="M109 1708h237l-43 -563h-151z" />
    <glyph glyph-name="parenleft" unicode="(" horiz-adv-x="743" 
d="M369 629q0 -140 16.5 -276.5t43 -242t58.5 -200.5t64.5 -162t59 -116t43.5 -73l16 -24l-158 -67q-8 9 -21 26.5t-52 78t-74 127t-77.5 171.5t-73.5 214.5t-52 253.5t-21 290t20.5 289.5t53 255.5t72 213.5t79.5 173.5t72.5 125.5t53.5 79.5l20 26l158 -68
q-12 -17 -32.5 -48.5t-72.5 -138.5t-91.5 -225.5t-72 -304t-32.5 -378.5z" />
    <glyph glyph-name="parenright" unicode=")" horiz-adv-x="743" 
d="M375 629q0 140 -16.5 276.5t-43 242t-59 200.5t-64.5 162t-58.5 116.5t-43.5 73.5l-16 24l157 68q8 -9 21 -27t52 -78t74 -127t77.5 -172t73.5 -215t52 -254t21 -290t-20.5 -289.5t-53 -255t-72 -213t-79.5 -173t-72.5 -125t-52.5 -79.5l-21 -26l-157 67q12 17 32.5 48
t72.5 138.5t91.5 225.5t72 303.5t32.5 378.5z" />
    <glyph glyph-name="asterisk" unicode="*" horiz-adv-x="759" 
d="M319 1761h119v-209l203 64l35 -109l-201 -69l119 -174l-90 -62l-125 164l-123 -164l-90 62l119 174l-201 69l35 109l200 -64v209z" />
    <glyph glyph-name="plus" unicode="+" horiz-adv-x="1290" 
d="M541 1374h209v-420h419v-209h-419v-419h-209v419h-420v209h420v420z" />
    <glyph glyph-name="comma" unicode="," horiz-adv-x="559" 
d="M279 289q67 0 114 -47t47 -113q0 -130 -67 -240.5t-170 -195.5l-66 55q1 1 8 10.5t14.5 19.5t18 26t20.5 35t19.5 41t17 48t11.5 52q-55 11 -91 52t-36 97q0 66 47 113t113 47z" />
    <glyph glyph-name="hyphen" unicode="-" horiz-adv-x="921" 
d="M131 696h660v-207h-660v207z" />
    <glyph glyph-name="period" unicode="." horiz-adv-x="557" 
d="M279 287q67 0 113 -47t46 -113t-46 -113t-113 -47t-113.5 47t-46.5 113t46.5 113t113.5 47z" />
    <glyph glyph-name="slash" unicode="/" horiz-adv-x="1105" 
d="M29 -246l843 2007h205l-844 -2007h-204z" />
    <glyph glyph-name="zero" unicode="0" horiz-adv-x="1593" 
d="M1485 844q0 -171 -37 -315.5t-101 -247t-151.5 -174t-188 -106t-210.5 -34.5t-210.5 34.5t-188 106t-151.5 174t-101 247t-37 315.5t37 315.5t101 246.5t151.5 173.5t188 106t210.5 34.5t210.5 -34.5t188 -106t151.5 -173.5t101 -246.5t37 -315.5zM1231 844
q0 309 -121 481t-313 172t-313.5 -172t-121.5 -481t121.5 -481.5t313.5 -172.5t313 172.5t121 481.5z" />
    <glyph glyph-name="one" unicode="1" horiz-adv-x="614" 
d="M-18 1690h462v-1690h-254v1440h-208v250z" />
    <glyph glyph-name="two" unicode="2" horiz-adv-x="1531" 
d="M158 1206q13 70 41.5 138.5t78.5 137.5t115 121t157.5 84.5t199.5 32.5q134 0 242 -36.5t175 -94t112 -135t63 -154t18 -155.5q0 -55 -15 -112.5t-38.5 -109t-62.5 -107.5t-76.5 -102t-90.5 -99t-95.5 -91.5t-101 -87t-96.5 -78.5t-92.5 -72.5t-79.5 -62.5h779v-223
h-1250v127q23 18 96 74t135.5 104t153 123t162.5 140.5t149 146.5t129 151t85.5 144t33.5 135q0 95 -36 173.5t-114 129.5t-185 51q-130 0 -231.5 -98t-141.5 -254z" />
    <glyph glyph-name="three" unicode="3" horiz-adv-x="1331" 
d="M156 1323q7 46 26 95t59.5 104.5t95.5 98t141 71t188 28.5q218 0 363 -135.5t145 -335.5q0 -121 -58.5 -216t-157.5 -146q121 -50 191 -159t70 -249q0 -223 -157 -367.5t-413 -144.5q-125 0 -226.5 32t-163 79.5t-105.5 108.5t-62.5 111.5t-23.5 96.5l237 64
q6 -40 26.5 -82.5t59 -86.5t106 -72t152.5 -28q145 0 228.5 79t83.5 210q0 133 -91.5 224.5t-218.5 91.5q-16 0 -33 -2.5t-26 -5.5l-8 -3v174h69q116 0 200.5 84t84.5 205q0 109 -81.5 186.5t-192.5 77.5q-61 0 -111 -16t-81.5 -40t-55.5 -57.5t-35.5 -62.5t-18.5 -61z" />
    <glyph glyph-name="four" unicode="4" horiz-adv-x="1259" 
d="M-27 471v88l803 1131h250v-996h197v-223h-197v-471h-238v471h-815zM315 694h473v654z" />
    <glyph glyph-name="five" unicode="5" horiz-adv-x="1366" 
d="M307 1690h862v-224h-647l-61 -385q83 37 198 37q100 0 189 -20t168.5 -65.5t137 -113t91 -169t33.5 -226.5q0 -245 -168.5 -400t-447.5 -155q-123 0 -227.5 32.5t-175 87t-117.5 116.5t-72 131l202 98q34 -106 135 -180t257 -74q168 0 266 98t98 254q0 79 -26 144.5
t-71.5 111.5t-107 78t-131.5 47t-147 15q-223 0 -375 -133z" />
    <glyph glyph-name="six" unicode="6" horiz-adv-x="1419" 
d="M90 539q0 150 65.5 305t184.5 297l461 549h313l-514 -607q42 33 174 33q102 0 200 -39t177.5 -109.5t128.5 -182.5t49 -246q0 -108 -32.5 -201.5t-90 -160.5t-134 -115t-165.5 -71.5t-184 -23.5q-178 0 -323 74.5t-227.5 205.5t-82.5 292zM350 539q0 -156 102.5 -258.5
t258.5 -102.5q158 0 262 103t104 258q0 160 -105.5 265t-260.5 105q-149 0 -255 -108t-106 -262z" />
    <glyph glyph-name="seven" unicode="7" horiz-adv-x="1275" 
d="M143 1690h1164v-78l-893 -1612h-301l819 1466h-789v224z" />
    <glyph glyph-name="eight" unicode="8" horiz-adv-x="1353" 
d="M678 1720q131 0 247.5 -55.5t189.5 -155t73 -217.5q0 -134 -65 -234t-175 -155q139 -57 223 -173t84 -279q0 -138 -80 -250t-211.5 -173t-285.5 -61t-286 61t-212 173t-80 250q0 163 84.5 279t223.5 173q-110 55 -175 155t-65 234q0 118 73 217.5t189.5 155t247.5 55.5z
M373 487q0 -132 86.5 -217.5t218.5 -85.5t218.5 85.5t86.5 217.5q0 130 -88 213.5t-217 83.5t-217 -83.5t-88 -213.5zM678 1528q-115 0 -191.5 -75t-76.5 -191t76.5 -191.5t191.5 -75.5t191.5 75.5t76.5 191.5t-76.5 191t-191.5 75z" />
    <glyph glyph-name="nine" unicode="9" horiz-adv-x="1419" 
d="M1329 1149q0 -150 -65.5 -305t-184.5 -297l-461 -547h-313l514 604q-42 -33 -174 -33q-102 0 -200 39t-177.5 110t-128.5 183t-49 246q0 135 50 245t135 180t193 108t228 38q133 0 250.5 -43.5t201.5 -119t132.5 -182t48.5 -226.5zM1069 1149q0 156 -102 258t-258 102
q-158 0 -262.5 -102.5t-104.5 -257.5q0 -160 106 -265.5t261 -105.5q148 0 254 108t106 263z" />
    <glyph glyph-name="colon" unicode=":" horiz-adv-x="557" 
d="M279 287q67 0 113 -47t46 -113t-46 -113t-113 -47t-113.5 47t-46.5 113t46.5 113t113.5 47zM279 1133q67 0 113 -47t46 -113t-46 -113t-113 -47t-113.5 47t-46.5 113t46.5 113t113.5 47z" />
    <glyph glyph-name="semicolon" unicode=";" horiz-adv-x="559" 
d="M279 289q67 0 114 -47t47 -113q0 -130 -67 -240.5t-170 -195.5l-66 55q1 1 8 10.5t14.5 19.5t18 26t20.5 35t19.5 41t17 48t11.5 52q-55 11 -91 52t-36 97q0 66 47 113t113 47zM279 1133q67 0 113 -47t46 -113t-46 -113t-113 -47t-113.5 47t-46.5 113t46.5 113t113.5 47z
" />
    <glyph glyph-name="less" unicode="&#x3c;" horiz-adv-x="1304" 
d="M78 932l1120 495v-196l-864 -379l864 -379v-197l-1120 496v160z" />
    <glyph glyph-name="equal" unicode="=" horiz-adv-x="1273" 
d="M113 1176h1048v-209h-1048v209zM113 731h1048v-209h-1048v209z" />
    <glyph glyph-name="greater" unicode="&#x3e;" horiz-adv-x="1304" 
d="M106 1427l1121 -495v-160l-1121 -496v197l865 379l-865 379v196z" />
    <glyph glyph-name="question" unicode="?" horiz-adv-x="1204" 
d="M57 1262q9 91 46.5 172t102 146t163.5 102.5t221 37.5q106 0 196 -31t151.5 -82t105.5 -117.5t64.5 -137t20.5 -140.5q0 -64 -16.5 -128t-52.5 -126t-87.5 -112t-127.5 -85.5t-166 -47.5v-230h-221v443q48 -11 123 -11q82 0 145.5 26t100.5 69.5t56 94.5t19 107
q0 120 -80.5 206.5t-230.5 86.5q-286 0 -330 -282zM567 287q67 0 113.5 -47t46.5 -113t-46.5 -113t-113.5 -47t-113 47t-46 113t46 113t113 47z" />
    <glyph glyph-name="at" unicode="@" horiz-adv-x="1935" 
d="M88 846q0 187 72 351t193.5 278t285.5 179.5t344 65.5q176 0 335 -63t275.5 -173t185 -267t68.5 -336q0 -208 -94 -323.5t-240 -115.5q-85 0 -150 33t-106 84q-54 -95 -144.5 -149t-207.5 -54q-190 0 -317 134t-127 335q0 203 127 338t317 135q109 0 198 -48t144 -132
v154h168v-531q0 -49 30 -89t95 -40q70 0 102.5 60t32.5 209q0 186 -92 337t-250 235.5t-350 84.5q-188 0 -346.5 -92t-251 -251.5t-92.5 -348.5q0 -143 53 -269t145 -216.5t220 -142.5t272 -52q96 0 181 21.5t144 56.5t98.5 69.5t63.5 69.5l164 -107q-22 -32 -54 -66.5
t-91.5 -79.5t-128 -79t-168.5 -58t-209 -24q-185 0 -350.5 66t-285 180.5t-189.5 278.5t-70 352zM674 827q0 -130 81.5 -214.5t207.5 -84.5q125 0 205.5 84.5t80.5 214.5q0 132 -81.5 217.5t-204.5 85.5q-124 0 -206.5 -86t-82.5 -217z" />
    <glyph glyph-name="A" unicode="A" horiz-adv-x="1511" 
d="M637 1690h237l672 -1690h-272l-172 453h-692l-172 -453h-273zM496 676h520l-260 672z" />
    <glyph glyph-name="B" unicode="B" horiz-adv-x="1343" 
d="M168 1690h430q118 0 211.5 -25t163.5 -76t107.5 -134.5t37.5 -194.5q0 -128 -58 -223.5t-171 -147.5q179 -29 279 -135.5t100 -294.5q0 -210 -143.5 -334.5t-397.5 -124.5h-559v1690zM422 1491v-520h110q340 3 340 266q0 126 -87 190t-253 64h-110zM422 752v-553h225
q172 0 264.5 68.5t92.5 199.5q0 143 -92 214t-265 71h-225z" />
    <glyph glyph-name="C" unicode="C" horiz-adv-x="1601" 
d="M88 844q0 180 72 342.5t193 279.5t287.5 185.5t348.5 68.5q106 0 203 -18.5t166.5 -48.5t110.5 -53t71 -46l-113 -215q-54 46 -163 88.5t-240 42.5q-153 0 -280 -52.5t-208.5 -141t-126 -200t-44.5 -232.5q0 -122 44.5 -234t126 -200t208.5 -140.5t280 -52.5
q131 0 240 42.5t163 88.5l113 -215q-30 -23 -71 -46t-110.5 -53t-166.5 -48.5t-203 -18.5q-181 0 -347.5 69t-288 186t-193.5 280t-72 342z" />
    <glyph glyph-name="D" unicode="D" horiz-adv-x="1536" 
d="M168 1690h428q172 0 328 -63.5t271.5 -174t184 -269.5t68.5 -339q0 -181 -68 -339.5t-183.5 -268.5t-271.5 -173t-329 -63h-428v1690zM422 1462v-1235h147q169 0 308 80t219 221.5t80 315.5t-80 316t-219 222t-308 80h-147z" />
    <glyph glyph-name="E" unicode="E" horiz-adv-x="1177" 
d="M168 1690h901v-224h-647v-508h622v-223h-622v-512h647v-223h-901v1690z" />
    <glyph glyph-name="F" unicode="F" horiz-adv-x="1177" 
d="M168 1690h907v-224h-653v-508h608v-223h-608v-735h-254v1690z" />
    <glyph glyph-name="G" unicode="G" horiz-adv-x="1777" 
d="M88 844q0 180 62.5 341.5t170.5 279t261.5 186.5t328.5 69q416 0 654 -288l-168 -183q-169 242 -471 242q-157 0 -286.5 -86.5t-203.5 -235t-74 -325.5q0 -174 75.5 -322t205.5 -234.5t283 -86.5q96 0 187 31t163 86.5t116 141.5t44 187v37h-525v199h783v-236
q0 -130 -58.5 -253t-160 -217.5t-249.5 -152t-315 -57.5q-134 0 -260 44.5t-227 125.5t-177 189t-117.5 241.5t-41.5 276.5z" />
    <glyph glyph-name="H" unicode="H" horiz-adv-x="1605" 
d="M168 1690h254v-732h762v732h254v-1690h-254v735h-762v-735h-254v1690z" />
    <glyph glyph-name="I" unicode="I" horiz-adv-x="589" 
d="M168 1690h254v-1690h-254v1690z" />
    <glyph glyph-name="J" unicode="J" horiz-adv-x="1019" 
d="M616 1690h254v-1215q0 -248 -136 -378t-392 -130q-68 0 -133.5 16.5t-110.5 40.5t-81 48t-53 40l-17 17l84 219q6 -6 16 -15t41 -33t62.5 -42.5t76 -33.5t84.5 -15q145 0 225 82.5t80 251.5v1147z" />
    <glyph glyph-name="K" unicode="K" horiz-adv-x="1480" 
d="M168 1690h254v-756l686 756h309l-733 -809l825 -881h-350l-645 694l-92 -102v-592h-254v1690z" />
    <glyph glyph-name="L" unicode="L" horiz-adv-x="1144" 
d="M168 1690h254v-1467h655v-223h-909v1690z" />
    <glyph glyph-name="M" unicode="M" horiz-adv-x="1941" 
d="M1415 1690h271l190 -1690h-254l-141 1229l-428 -1168h-164l-428 1168l-142 -1229h-253l190 1690h270l445 -1174z" />
    <glyph glyph-name="N" unicode="N" horiz-adv-x="1654" 
d="M168 1690h254l811 -1264v1264h254v-1690h-254l-811 1262v-1262h-254v1690z" />
    <glyph glyph-name="O" unicode="O" horiz-adv-x="1880" 
d="M88 844q0 182 68 345t183 279t272 184t329 68t329 -68t272 -184t183 -279t68 -345t-68 -345t-183 -279.5t-272 -184.5t-329 -68t-329 68t-272 184.5t-183 279.5t-68 345zM362 844q0 -169 70.5 -312.5t204 -232t303.5 -88.5t303.5 88.5t204 232t70.5 312.5t-70.5 312.5
t-204 232t-303.5 88.5t-303.5 -88.5t-204 -232t-70.5 -312.5z" />
    <glyph glyph-name="P" unicode="P" horiz-adv-x="1327" 
d="M168 1690h516q253 0 404 -129.5t151 -366.5t-152.5 -376.5t-402.5 -139.5h-262v-678h-254v1690zM422 1485v-600h188q163 0 264 78t101 225q0 146 -100.5 221.5t-264.5 75.5h-188z" />
    <glyph glyph-name="Q" unicode="Q" horiz-adv-x="1880" 
d="M1855 172l-112 -227q-185 77 -328 170q-213 -148 -475 -148q-172 0 -329 68t-272 184.5t-183 279.5t-68 345t68 345t183 279t272 184t329 68t329 -68t272 -184t183 -279t68 -345q0 -159 -52.5 -303.5t-146.5 -259.5q142 -70 262 -109zM362 844q0 -169 70.5 -312.5
t204 -232t303.5 -88.5q145 0 262 63q-141 123 -274 271l108 133q134 -139 330 -268q73 87 112.5 199.5t39.5 234.5q0 169 -70.5 312.5t-204 232t-303.5 88.5t-303.5 -88.5t-204 -232t-70.5 -312.5z" />
    <glyph glyph-name="R" unicode="R" horiz-adv-x="1388" 
d="M1384 0h-323l-518 678h-121v-678h-254v1690h516q253 0 404 -129.5t151 -366.5q0 -200 -110 -332.5t-300 -169.5zM422 1485v-600h188q163 0 264 78t101 225q0 146 -100.5 221.5t-264.5 75.5h-188z" />
    <glyph glyph-name="S" unicode="S" horiz-adv-x="1351" 
d="M211 1237q0 140 72 252t187 171.5t247 59.5q100 0 184 -21t143.5 -57.5t99.5 -75.5t70 -85l-157 -146q-102 154 -326 154q-127 0 -199.5 -71.5t-72.5 -172.5q0 -84 67 -142t191 -106q69 -28 113 -46.5t107.5 -50.5t104 -59.5t86.5 -68.5t72.5 -83t44 -97.5t17.5 -116.5
q0 -128 -46.5 -227t-128 -159.5t-185 -91t-224.5 -30.5q-124 0 -228.5 28t-175.5 75.5t-118.5 99.5t-75.5 111l170 153q142 -231 412 -231q61 0 115 13t103 41t78 80.5t29 123.5q0 48 -20.5 90t-53.5 74.5t-90.5 65.5t-114 58.5t-141.5 59.5q-176 72 -266 180.5t-90 247.5z
" />
    <glyph glyph-name="T" unicode="T" horiz-adv-x="1208" 
d="M10 1690h1188v-224h-469v-1466h-254v1466h-465v224z" />
    <glyph glyph-name="U" unicode="U" horiz-adv-x="1531" 
d="M150 1690h253v-1020q0 -238 89 -345.5t274 -107.5q184 0 273 107.5t89 345.5v1020h254v-1088q0 -312 -158 -473.5t-458 -161.5t-458 161.5t-158 473.5v1088z" />
    <glyph glyph-name="V" unicode="V" horiz-adv-x="1548" 
d="M1296 1690h287l-709 -1690h-200l-709 1690h287l522 -1307z" />
    <glyph glyph-name="W" unicode="W" horiz-adv-x="2256" 
d="M-35 1690h283l364 -1348l420 1348h193l420 -1348l364 1348h283l-494 -1690h-282l-388 1198l-387 -1198h-282z" />
    <glyph glyph-name="X" unicode="X" horiz-adv-x="1531" 
d="M68 1690h305l393 -568l393 568h305l-540 -779l643 -911h-316l-485 690l-485 -690h-316l643 911z" />
    <glyph glyph-name="Y" unicode="Y" horiz-adv-x="1384" 
d="M1114 1690h305l-600 -947v-743h-254v743l-600 947h305l422 -684z" />
    <glyph glyph-name="Z" unicode="Z" horiz-adv-x="1560" 
d="M178 1690h1321l-989 -1465h934v-225h-1383l988 1464h-871v226z" />
    <glyph glyph-name="bracketleft" unicode="[" horiz-adv-x="755" 
d="M168 1761h528v-166h-317v-1962h317v-165h-528v2293z" />
    <glyph glyph-name="backslash" unicode="\" horiz-adv-x="1103" 
d="M29 1761h204l844 -1761h-205z" />
    <glyph glyph-name="bracketright" unicode="]" horiz-adv-x="755" 
d="M59 1761h529v-2293h-529v165h318v1962h-318v166z" />
    <glyph glyph-name="asciicircum" unicode="^" horiz-adv-x="960" 
d="M-6 1239l424 483h127l424 -483h-217l-271 313l-270 -313h-217z" />
    <glyph glyph-name="underscore" unicode="_" horiz-adv-x="1050" 
d="M0 -86h1051v-121h-1051v121z" />
    <glyph glyph-name="grave" unicode="`" horiz-adv-x="679" 
d="M104 1554l129 166l342 -286l-81 -111z" />
    <glyph glyph-name="a" unicode="a" 
d="M90 524q0 237 149 397t375 160q125 0 227 -52.5t167 -147.5v168h241v-1049h-241v174q-63 -95 -167 -151t-227 -56q-226 0 -375 160t-149 397zM342 524q0 -154 94.5 -252t243.5 -98q147 0 241.5 98.5t94.5 251.5q0 154 -96 252t-240 98q-146 0 -242 -98t-96 -252z" />
    <glyph glyph-name="b" unicode="b" 
d="M1323 524q0 -237 -149 -397t-375 -160q-123 0 -226.5 56t-166.5 151v-174h-242v1761h242v-880q65 95 167 147.5t226 52.5q226 0 375 -160t149 -397zM1071 524q0 154 -96 252t-242 98q-144 0 -240 -98t-96 -252q0 -153 94.5 -251.5t241.5 -98.5q149 0 243.5 98t94.5 252z
" />
    <glyph glyph-name="c" unicode="c" horiz-adv-x="1091" 
d="M926 240l88 -164q-28 -22 -66 -43t-119.5 -43.5t-171.5 -22.5q-153 0 -284.5 72.5t-210 201t-78.5 283.5t78.5 283.5t210 201t284.5 72.5q69 0 132 -12t107.5 -31t71.5 -34.5t46 -30.5l-88 -164q-33 28 -96 51t-140 23q-150 0 -251 -103t-101 -256q0 -152 100.5 -255
t251.5 -103q77 0 140 23t96 51z" />
    <glyph glyph-name="d" unicode="d" 
d="M90 524q0 237 149 397t375 160q125 0 227 -52.5t167 -147.5v880h241v-1761h-241v174q-63 -95 -167 -151t-227 -56q-226 0 -375 160t-149 397zM342 524q0 -154 94.5 -252t243.5 -98q147 0 241.5 98.5t94.5 251.5q0 154 -96 252t-240 98q-146 0 -242 -98t-96 -252z" />
    <glyph glyph-name="e" unicode="e" horiz-adv-x="1282" 
d="M84 526q0 151 76 279t205.5 202t281.5 74q154 0 279 -66.5t198.5 -193t73.5 -289.5v-36h-866q0 -103 49.5 -181t125.5 -115.5t165 -37.5q108 0 183.5 37.5t141.5 122.5l174 -91q-82 -132 -214 -198t-302 -66q-156 0 -287.5 73.5t-207.5 202t-76 283.5zM340 635h625
q-15 125 -100.5 194.5t-211.5 69.5q-133 0 -218.5 -71.5t-94.5 -192.5z" />
    <glyph glyph-name="f" unicode="f" horiz-adv-x="688" 
d="M76 1049h125v311q0 205 91 318.5t251 113.5q64 0 123.5 -18.5t81.5 -32t36 -25.5l-84 -170q-13 11 -45 22t-71 11q-76 0 -109 -51t-33 -170v-309h256v-183h-256v-866h-241v866h-125v183z" />
    <glyph glyph-name="g" unicode="g" 
d="M342 524q0 -154 94.5 -252t243.5 -98q147 0 241.5 98.5t94.5 251.5q0 154 -96 252t-240 98q-146 0 -242 -98t-96 -252zM90 524q0 237 149 397t375 160q125 0 227 -52.5t167 -147.5v168h241v-1078q0 -255 -159 -394.5t-433 -139.5q-127 0 -231.5 29t-191.5 98.5
t-134 177.5l201 96q40 -83 132.5 -137.5t223.5 -54.5q149 0 250 88.5t101 245.5v194q-63 -95 -167 -151t-227 -56q-226 0 -375 160t-149 397z" />
    <glyph glyph-name="h" unicode="h" horiz-adv-x="1304" 
d="M164 1761h242v-841q54 76 140.5 118.5t176.5 42.5q89 0 166.5 -25t138.5 -73.5t96 -126.5t35 -178v-678h-239v610q0 127 -65.5 204t-186.5 77q-109 0 -185.5 -76t-76.5 -172v-643h-242v1761z" />
    <glyph glyph-name="i" unicode="i" horiz-adv-x="569" 
d="M285 1571q67 0 113 -47t46 -113t-46 -113t-113 -47t-113.5 47t-46.5 113t46.5 113t113.5 47zM164 1049h242v-1049h-242v1049z" />
    <glyph glyph-name="j" unicode="j" horiz-adv-x="569" 
d="M164 1049h242v-1250q0 -162 -80 -262t-244 -100q-62 0 -113 11t-71 20t-50 26l74 195q13 -11 44 -23t65 -12q133 0 133 182v1213zM285 1571q67 0 113 -47t46 -113t-46 -113t-113 -47t-113.5 47t-46.5 113t46.5 113t113.5 47z" />
    <glyph glyph-name="k" unicode="k" horiz-adv-x="1138" 
d="M164 1761h242v-1108l364 396h309l-422 -449l529 -600h-307l-379 432l-94 -98v-334h-242v1761z" />
    <glyph glyph-name="l" unicode="l" horiz-adv-x="569" 
d="M164 1761h242v-1761h-242v1761z" />
    <glyph glyph-name="m" unicode="m" horiz-adv-x="1998" 
d="M164 1049h242v-129q59 76 144.5 118.5t172.5 42.5q131 0 227.5 -53t141.5 -156q68 98 161.5 153.5t194.5 55.5q183 0 294 -102.5t111 -300.5v-678h-239v610q0 127 -62.5 202t-185.5 75q-103 0 -169.5 -68.5t-66.5 -142.5v-676h-241v610q0 127 -62.5 202t-185.5 75
q-104 0 -169.5 -71t-65.5 -146v-670h-242v1049z" />
    <glyph glyph-name="n" unicode="n" horiz-adv-x="1304" 
d="M164 1049h242v-129q54 76 140.5 118.5t176.5 42.5q89 0 166.5 -25t138.5 -73.5t96 -126.5t35 -178v-678h-239v610q0 127 -65.5 204t-186.5 77q-109 0 -185.5 -76t-76.5 -172v-643h-242v1049z" />
    <glyph glyph-name="o" unicode="o" horiz-adv-x="1372" 
d="M84 524q0 161 79.5 289t216.5 198t306 70t306 -70t216.5 -198t79.5 -289t-79.5 -289t-216.5 -198t-306 -70t-306 70t-216.5 198t-79.5 289zM334 524q0 -153 100 -251.5t252 -98.5t252 98.5t100 251.5t-100 251.5t-252 98.5t-252 -98.5t-100 -251.5z" />
    <glyph glyph-name="p" unicode="p" 
d="M1323 524q0 -237 -149 -397t-375 -160q-123 0 -226.5 56t-166.5 151v-706h-242v1581h242v-168q65 95 167 147.5t226 52.5q226 0 375 -160t149 -397zM1071 524q0 154 -96 252t-242 98q-144 0 -240 -98t-96 -252q0 -153 94.5 -251.5t241.5 -98.5q149 0 243.5 98t94.5 252z
" />
    <glyph glyph-name="q" unicode="q" 
d="M90 524q0 237 149 397t375 160q125 0 227 -52.5t167 -147.5v168h241v-1581h-241v706q-63 -95 -167 -151t-227 -56q-226 0 -375 160t-149 397zM342 524q0 -154 94.5 -252t243.5 -98q147 0 241.5 98.5t94.5 251.5q0 154 -96 252t-240 98q-146 0 -242 -98t-96 -252z" />
    <glyph glyph-name="r" unicode="r" horiz-adv-x="909" 
d="M164 1049h242v-154q11 24 37 53.5t65 60.5t95 51.5t116 20.5q62 0 117.5 -14.5t85.5 -34.5l-99 -205q-56 45 -170 45q-54 0 -98.5 -20t-71 -49t-45 -63.5t-25.5 -61.5t-7 -45v-633h-242v1049z" />
    <glyph glyph-name="s" unicode="s" horiz-adv-x="989" 
d="M158 776q0 138 106 221.5t287 83.5q95 0 173 -29.5t122 -66.5l-98 -141q-71 65 -197 65q-164 0 -164 -121q0 -51 46.5 -83.5t150.5 -65.5q51 -16 88.5 -30t84.5 -41.5t76.5 -59.5t50.5 -81.5t21 -109.5q0 -79 -26.5 -141t-69 -100.5t-101 -63.5t-117 -35t-122.5 -10
q-121 0 -221 50.5t-158 132.5l123 129q45 -57 118 -93t165 -36q77 0 130.5 38.5t53.5 118.5q0 24 -7 43t-22.5 34.5t-31.5 27.5t-43.5 24t-49 20t-56.5 20.5t-58 21.5q-42 17 -72.5 31.5t-67 39.5t-59.5 52.5t-39 67.5t-16 87z" />
    <glyph glyph-name="t" unicode="t" horiz-adv-x="727" 
d="M76 1049h125v393h241v-393h244v-183h-244v-512q0 -88 25.5 -130t83.5 -42q25 0 50 8t37 16l13 9l60 -192q-10 -6 -27.5 -15.5t-73.5 -25t-112 -15.5q-297 0 -297 344v555h-125v183z" />
    <glyph glyph-name="u" unicode="u" horiz-adv-x="1286" 
d="M899 1049h242v-605q0 -256 -120 -366.5t-378 -110.5t-378 110.5t-120 366.5v605h242v-551q0 -187 60.5 -259.5t195.5 -72.5t195.5 72.5t60.5 259.5v551z" />
    <glyph glyph-name="v" unicode="v" horiz-adv-x="1183" 
d="M-20 1049h284l328 -723l328 723h284l-532 -1049h-160z" />
    <glyph glyph-name="w" unicode="w" horiz-adv-x="1929" 
d="M-20 1049h276l330 -719l297 719h164l296 -719l330 719h277l-533 -1049h-162l-290 698l-291 -698h-162z" />
    <glyph glyph-name="x" unicode="x" horiz-adv-x="1191" 
d="M61 1049h279l256 -336l256 336h278l-382 -504l444 -545h-289l-307 383l-307 -383h-289l444 545z" />
    <glyph glyph-name="y" unicode="y" horiz-adv-x="1193" 
d="M-20 1049h274l362 -727l324 727h274l-763 -1581h-277l303 618z" />
    <glyph glyph-name="z" unicode="z" horiz-adv-x="1153" 
d="M117 1049h1001l-667 -861h634v-188h-1050l665 860h-583v189z" />
    <glyph glyph-name="braceleft" unicode="{" horiz-adv-x="761" 
d="M141 682q113 0 113 115v594q0 55 8.5 104t31 99t58 86t94 58.5t134.5 22.5h133v-180h-62q-88 0 -137 -55.5t-49 -153.5v-596q0 -116 -86 -162q86 -46 86 -161v-596q0 -98 49 -153.5t137 -55.5h62v-180h-133q-76 0 -134.5 22.5t-94 58.5t-58 86t-31 99t-8.5 104v594
q0 115 -113 115v135z" />
    <glyph glyph-name="bar" unicode="|" horiz-adv-x="548" 
d="M168 1761h211v-1761h-211v1761z" />
    <glyph glyph-name="braceright" unicode="}" horiz-adv-x="761" 
d="M621 682v-135q-113 0 -113 -115v-594q0 -55 -8.5 -104t-31 -99t-58 -86t-94 -58.5t-134.5 -22.5h-133v180h62q88 0 137 55.5t49 153.5v596q0 115 86 161q-86 46 -86 162v596q0 98 -49 153.5t-137 55.5h-62v180h133q76 0 134.5 -22.5t94 -58.5t58 -86t31 -99t8.5 -104
v-594q0 -115 113 -115z" />
    <glyph glyph-name="asciitilde" unicode="~" horiz-adv-x="1372" 
d="M1108 1016l129 -115q-57 -87 -101 -131q-107 -108 -225 -108q-133 0 -278 106q-99 74 -172 74q-26 0 -52 -10.5t-43 -22.5t-37 -34.5t-28 -34.5t-23 -35l-14 -23l-129 115q57 87 101 131q107 108 225 108q133 0 278 -106q99 -74 172 -74q26 0 52 10.5t43 22.5t37 34.5
t28 34.5t23 35z" />
    <glyph glyph-name="exclamdown" unicode="&#xa1;" horiz-adv-x="657" 
d="M451 -532h-242l31 1292h180zM330 942q-67 0 -113.5 47t-46.5 113t46.5 113t113.5 47t113 -47t46 -113t-46 -113t-113 -47z" />
    <glyph glyph-name="cent" unicode="&#xa2;" horiz-adv-x="1089" 
d="M84 524q0 197 124 346.5t312 194.5v238h150v-222q86 -2 164.5 -24.5t114.5 -42.5t65 -41l-88 -164q-33 28 -96 51t-140 23q-150 0 -251 -103t-101 -256q0 -152 100.5 -255t251.5 -103q77 0 140 23t96 51l88 -164q-116 -89 -289 -105v-235h-152v237q-208 30 -348.5 184
t-140.5 367z" />
    <glyph glyph-name="sterling" unicode="&#xa3;" horiz-adv-x="1544" 
d="M129 758h250q-64 100 -97.5 189t-33.5 212q0 117 38.5 220t109 179t177 120t234.5 44q88 0 164.5 -18.5t130.5 -47.5t99.5 -68.5t73.5 -78t49 -79t30.5 -68t13.5 -49.5l-215 -99q-5 28 -16.5 61t-39 78t-63.5 80t-96 60t-131 25q-142 0 -225.5 -101.5t-83.5 -257.5
q0 -48 6 -92.5t13.5 -75t23 -68t25.5 -56.5t30.5 -56.5t28.5 -52.5h440v-140h-385q22 -61 22 -135q0 -34 -7.5 -69.5t-15 -56.5t-18.5 -46t-12 -28q39 0 106.5 -28.5t151.5 -57.5t164 -29q49 0 89.5 24t63 59t34.5 66.5t14 53.5l190 -95q-4 -24 -16 -56.5t-40.5 -78
t-67.5 -82.5t-102.5 -63.5t-139.5 -26.5q-87 0 -177.5 23.5t-153 51.5t-140 51.5t-142.5 23.5q-40 0 -72.5 -13.5t-52 -34t-30 -38.5t-15.5 -33h-155q3 41 25 91t58.5 97t92 79.5t117.5 33.5q38 72 38 174q0 72 -38 143h-322v140z" />
    <glyph glyph-name="yen" unicode="&#xa5;" horiz-adv-x="1425" 
d="M-14 1690h305l422 -684l422 684h305l-539 -850h356v-183h-417v-192h417v-182h-417v-283h-254v283h-418v182h418v192h-418v183h356z" />
    <glyph glyph-name="brokenbar" unicode="&#xa6;" horiz-adv-x="548" 
d="M168 1761h211v-680h-211v680zM168 680h211v-680h-211v680z" />
    <glyph glyph-name="section" unicode="&#xa7;" horiz-adv-x="1310" 
d="M125 618q4 109 68.5 198t166.5 132q-94 66 -138 147t-44 195q0 88 32.5 165.5t93 136.5t154.5 93.5t210 34.5q88 0 163 -23t127.5 -63t88 -85t57.5 -97l-193 -102q-22 69 -87 118.5t-156 49.5q-107 0 -168.5 -65.5t-61.5 -154.5q0 -47 24.5 -87.5t74.5 -75t104.5 -61
t136.5 -58.5q224 -89 332.5 -195.5t108.5 -261.5q0 -103 -68 -192.5t-172 -133.5q95 -69 140.5 -154.5t45.5 -203.5q0 -66 -19 -128t-61 -119t-103.5 -99t-154 -67t-204.5 -25q-106 0 -194.5 27t-149.5 74t-103 100.5t-70 117.5l191 113q15 -36 38 -70.5t61 -73t97 -62
t130 -23.5q130 0 205 61t75 166q0 99 -91.5 171t-283.5 146q-202 79 -302.5 183t-100.5 251zM346 653q1 -41 21 -76t58 -63t81 -49.5t102 -44.5q149 -59 209 -94q73 20 126 72.5t56 123.5q-4 88 -95.5 155t-258.5 126q-60 22 -123 53q-71 -21 -123 -75t-53 -128z" />
    <glyph glyph-name="dieresis" unicode="&#xa8;" horiz-adv-x="1044" 
d="M147 1432q0 55 39 94t93 39t92.5 -39t38.5 -94t-38.5 -94.5t-92.5 -39.5t-93 39.5t-39 94.5zM635 1432q0 55 38.5 94t92.5 39t92.5 -39t38.5 -94t-38.5 -94.5t-92.5 -39.5t-92.5 39.5t-38.5 94.5z" />
    <glyph glyph-name="copyright" unicode="&#xa9;" horiz-adv-x="1910" 
d="M88 844q0 179 69 341.5t185.5 279.5t276.5 186t335 69q177 0 337 -69t276.5 -186t185 -279.5t68.5 -341.5t-68 -341t-183.5 -279t-276 -186t-339.5 -69q-180 0 -341 69t-276 186t-182 279t-67 341zM254 844q0 -196 91.5 -359.5t252.5 -258.5t356 -95q193 0 354.5 95
t254 258.5t92.5 359.5q0 146 -55.5 278.5t-149.5 228t-223.5 152t-272.5 56.5q-141 0 -270.5 -56.5t-223.5 -152t-150 -228t-56 -278.5zM485 844q0 134 67.5 245.5t180 174.5t244.5 63q107 0 184.5 -28.5t120.5 -63.5l-68 -125q-29 24 -88.5 44t-121.5 20q-138 0 -231 -94
t-93 -234q0 -141 93 -234.5t231 -93.5q127 0 210 64l68 -125q-38 -32 -121 -61t-184 -29q-132 0 -244.5 62t-180 172t-67.5 243z" />
    <glyph glyph-name="ordfeminine" unicode="&#xaa;" horiz-adv-x="991" 
d="M131 1376q0 147 93 245.5t233 98.5q75 0 138 -32.5t103 -90.5v103h150v-647h-150v106q-37 -58 -101.5 -92.5t-139.5 -34.5q-140 0 -233 98.5t-93 245.5zM287 1376q0 -95 58.5 -156t150.5 -61q91 0 150 61t59 156t-59.5 156t-149.5 61t-149.5 -61t-59.5 -156z" />
    <glyph glyph-name="guillemotleft" unicode="&#xab;" horiz-adv-x="1177" 
d="M449 1081l133 -104l-318 -408l318 -407l-133 -105l-400 512zM961 1081l133 -104l-318 -408l318 -407l-133 -105l-400 512z" />
    <glyph glyph-name="registered" unicode="&#xae;" horiz-adv-x="1032" 
d="M57 1260q0 190 134.5 325t322.5 135q126 0 232 -61.5t167.5 -167.5t61.5 -231q0 -189 -134.5 -323t-326.5 -134q-92 0 -176.5 36.5t-146 97.5t-98 145.5t-36.5 177.5zM143 1260q0 -153 109 -262t262 -109q157 0 267 108.5t110 262.5q0 155 -110 264.5t-267 109.5
q-153 0 -262 -109.5t-109 -264.5zM377 1520h133q76 0 122 -39.5t46 -110.5q0 -60 -35.5 -100t-95.5 -49l170 -215h-86l-160 211h-27v-211h-67v514zM444 1464v-194h48q52 0 83 26t31 72t-31 71t-83 25h-48z" />
    <glyph glyph-name="macron" unicode="&#xaf;" horiz-adv-x="1122" 
d="M143 1505h836v-166h-836v166z" />
    <glyph glyph-name="degree" unicode="&#xb0;" horiz-adv-x="671" 
d="M336 1792q95 0 160 -59.5t65 -151.5t-65 -151.5t-160 -59.5t-160 59.5t-65 151.5t65 151.5t160 59.5zM336 1460q50 0 82.5 34.5t32.5 86.5t-32.5 86.5t-82.5 34.5t-82.5 -34.5t-32.5 -86.5t32.5 -86.5t82.5 -34.5z" />
    <glyph glyph-name="plusminus" unicode="&#xb1;" horiz-adv-x="1327" 
d="M559 1405h209v-422h420v-209h-420v-422h-209v422h-420v209h420v422zM139 207h1049v-207h-1049v207z" />
    <glyph glyph-name="twosuperior" unicode="&#xb2;" horiz-adv-x="555" 
d="M72 1522q6 35 23 68t44 63.5t69.5 49.5t94.5 19q65 0 113.5 -21t74.5 -55.5t38 -71.5t12 -77q0 -30 -10 -60.5t-32 -61.5t-41.5 -55t-54.5 -55t-53 -46.5t-55 -44.5t-45 -35h303v-88h-487v49q7 6 52.5 41t78 61t81 69.5t79.5 78.5t54 75.5t23 71.5q0 59 -34.5 99
t-96.5 40q-52 0 -91 -38t-54 -99z" />
    <glyph glyph-name="threesuperior" unicode="&#xb3;" horiz-adv-x="509" 
d="M70 1571q3 23 15 46.5t33.5 48.5t59.5 40.5t86 15.5q84 0 139.5 -51.5t55.5 -128.5q0 -94 -82 -139q46 -19 73 -60.5t27 -95.5q0 -86 -60 -141t-159 -55q-59 0 -104 17.5t-68 45.5t-34.5 52.5t-14.5 47.5l90 25q6 -36 38 -69t93 -33q56 0 87.5 30t31.5 80
q0 52 -34.5 86.5t-82.5 34.5l-27 -4v68h27q44 0 76.5 32t32.5 78q0 41 -31.5 70.5t-73.5 29.5q-93 0 -114 -90z" />
    <glyph glyph-name="acute" unicode="&#xb4;" horiz-adv-x="899" 
d="M215 1434l342 286l129 -166l-389 -231z" />
    <glyph glyph-name="mu" unicode="&#xb5;" horiz-adv-x="1353" 
d="M197 1049h239v-611q0 -127 64.5 -203.5t185.5 -76.5q109 0 186.5 76.5t77.5 171.5v643h242v-1049h-242v129q-54 -76 -141 -119t-176 -43q-125 0 -197 72v-367h-291q0 138 26 369.5t26 398.5v609z" />
    <glyph glyph-name="paragraph" unicode="&#xb6;" horiz-adv-x="1380" 
d="M141 1194q0 237 151 366.5t404 129.5h514v-1690h-149v1542h-94v-1542h-150v678h-121q-250 0 -402.5 139.5t-152.5 376.5z" />
    <glyph glyph-name="periodcentered" unicode="&#xb7;" horiz-adv-x="559" 
d="M279 711q67 0 113 -47t46 -113t-46 -113t-113 -47t-113.5 47t-46.5 113t46.5 113t113.5 47z" />
    <glyph glyph-name="cedilla" unicode="&#xb8;" horiz-adv-x="866" 
d="M305 -254l98 303l107 -33l-53 -166q20 5 55 5q87 0 154 -59.5t67 -153.5q0 -103 -73.5 -173.5t-210.5 -70.5q-89 0 -172 47.5t-123 114.5l106 75q28 -43 81 -74.5t108 -31.5q62 0 100.5 31t38.5 82q0 56 -41.5 89t-100.5 33q-82 0 -129 -28z" />
    <glyph glyph-name="onesuperior" unicode="&#xb9;" horiz-adv-x="262" 
d="M39 1690h176v-639h-96v544h-80v95z" />
    <glyph glyph-name="ordmasculine" unicode="&#xba;" horiz-adv-x="1007" 
d="M115 1374q0 151 111.5 248.5t277.5 97.5t277.5 -97.5t111.5 -248.5t-111.5 -248.5t-277.5 -97.5t-277.5 97.5t-111.5 248.5zM281 1374q0 -90 63.5 -149.5t159.5 -59.5t159.5 59.5t63.5 149.5t-63.5 149.5t-159.5 59.5t-159.5 -59.5t-63.5 -149.5z" />
    <glyph glyph-name="guillemotright" unicode="&#xbb;" horiz-adv-x="1177" 
d="M596 977l133 104l399 -512l-399 -512l-133 105l317 407zM84 977l133 104l399 -512l-399 -512l-133 105l317 407z" />
    <glyph glyph-name="onequarter" unicode="&#xbc;" horiz-adv-x="1630" 
d="M129 1690h270v-983h-147v837h-123v146zM825 274v52l469 657h146v-580h112v-129h-112v-274h-140v274h-475zM1026 403h274v381zM152 0l983 1690h163l-983 -1690h-163z" />
    <glyph glyph-name="onehalf" unicode="&#xbd;" horiz-adv-x="1892" 
d="M129 1690h270v-983h-147v837h-123v146zM1036 692q9 51 33.5 100.5t64.5 94.5t102.5 72.5t137.5 27.5q77 0 139 -21t100.5 -54.5t64 -78t36 -88t10.5 -88.5q0 -39 -13.5 -81t-33 -77t-53 -75.5t-61.5 -70t-71 -67t-69.5 -59t-69 -55t-57.5 -45.5h445v-127h-715v74
q8 6 64 48.5t94 73t101 82.5t106 96.5t87 95.5t66.5 99t22.5 88q0 85 -50.5 144t-142.5 59q-74 0 -131.5 -56t-81.5 -145zM154 0l983 1690h163l-983 -1690h-163z" />
    <glyph glyph-name="threequarters" unicode="&#xbe;" horiz-adv-x="1910" 
d="M1106 274v52l469 655h145v-578h113v-129h-113v-274h-139v274h-475zM1307 403h274v379zM123 1470q5 34 22.5 69.5t49.5 72.5t88.5 60.5t128.5 23.5q124 0 206 -76t82 -190q0 -69 -32.5 -123t-87.5 -84q68 -28 107.5 -89.5t39.5 -142.5q0 -126 -89 -208.5t-235 -82.5
q-71 0 -129 18.5t-93 45.5t-59.5 61.5t-34.5 63.5t-13 55l135 37q3 -23 15 -47t33 -49.5t59.5 -41.5t86.5 -16q82 0 129.5 45.5t47.5 118.5q0 76 -51.5 128t-122.5 52q-10 0 -20 -1.5t-14 -3.5l-5 -1v99h39q65 0 113 47.5t48 115.5q0 63 -46 107.5t-109 44.5q-43 0 -76 -13
t-51.5 -35t-29 -43t-15.5 -44zM432 0l983 1690h164l-983 -1690h-164z" />
    <glyph glyph-name="questiondown" unicode="&#xbf;" horiz-adv-x="1204" 
d="M1143 -102q-9 -92 -46.5 -172.5t-102 -145.5t-163.5 -103t-221 -38q-106 0 -196 31t-151.5 82t-105.5 117.5t-64.5 137t-20.5 140.5q0 64 16.5 128t52.5 126t87.5 112t127.5 85.5t166 47.5v230h221v-443q-48 11 -122 11q-82 0 -145.5 -26t-101 -69.5t-56.5 -94.5
t-19 -107q0 -120 80.5 -206.5t230.5 -86.5q286 0 330 283zM633 872q-67 0 -113.5 47t-46.5 113t46.5 113t113.5 47t113.5 -47t46.5 -113t-46.5 -113t-113.5 -47z" />
    <glyph glyph-name="Agrave" unicode="&#xc0;" horiz-adv-x="1511" 
d="M367 2073l129 165l342 -286l-82 -111zM637 1690h237l672 -1690h-272l-172 453h-692l-172 -453h-273zM496 676h520l-260 672z" />
    <glyph glyph-name="Aacute" unicode="&#xc1;" horiz-adv-x="1511" 
d="M674 1952l342 286l129 -165l-389 -232zM637 1690h237l672 -1690h-272l-172 453h-692l-172 -453h-273zM496 676h520l-260 672z" />
    <glyph glyph-name="Acircumflex" unicode="&#xc2;" horiz-adv-x="1511" 
d="M346 1970l410 299l409 -299l-96 -129l-313 230l-314 -230zM637 1690h237l672 -1690h-272l-172 453h-692l-172 -453h-273zM496 676h520l-260 672z" />
    <glyph glyph-name="Atilde" unicode="&#xc3;" horiz-adv-x="1511" 
d="M637 1690h237l672 -1690h-272l-172 453h-692l-172 -453h-273zM496 676h520l-260 672zM205 2060q54 82 91 122q111 118 234 118q133 0 279 -107q98 -73 172 -73q23 0 44.5 6.5t39.5 19.5t32.5 25.5t28.5 31t22 29.5t18 28t12 19l129 -114q-56 -85 -97 -127
q-110 -112 -229 -113q-133 0 -279 107q-98 73 -172 73q-26 0 -51.5 -10t-43 -22.5t-37 -35t-28 -34t-22.5 -34.5l-14 -23z" />
    <glyph glyph-name="Adieresis" unicode="&#xc4;" horiz-adv-x="1511" 
d="M381 2071q0 55 38.5 94t92.5 39t92.5 -39t38.5 -94t-38.5 -94.5t-92.5 -39.5t-92.5 39.5t-38.5 94.5zM868 2071q0 55 38.5 94t92.5 39t92.5 -39t38.5 -94t-38.5 -94.5t-92.5 -39.5t-92.5 39.5t-38.5 94.5zM637 1690h237l672 -1690h-272l-172 453h-692l-172 -453h-273z
M496 676h520l-260 672z" />
    <glyph glyph-name="Aring" unicode="&#xc5;" horiz-adv-x="1511" 
d="M479 2140q0 106 79.5 176t197.5 70t197 -69.5t79 -176.5q0 -109 -76.5 -178.5t-199.5 -69.5q-124 0 -200.5 69.5t-76.5 178.5zM623 2140q0 -56 37 -92.5t96 -36.5q58 0 95.5 36.5t37.5 92.5q0 53 -38 89t-95 36q-56 0 -94.5 -36.5t-38.5 -88.5zM637 1690h237l672 -1690
h-272l-172 453h-692l-172 -453h-273zM496 676h520l-260 672z" />
    <glyph glyph-name="AE" unicode="&#xc6;" horiz-adv-x="1765" 
d="M-35 0l672 1690h1020v-224h-647v-508h622v-223h-622v-512h647v-223h-901v453h-346l-172 -453h-273zM496 676h260v672z" />
    <glyph glyph-name="Ccedilla" unicode="&#xc7;" horiz-adv-x="1603" 
d="M727 -254l78 240q-202 41 -364.5 163t-256.5 304.5t-94 390.5q0 180 72 342.5t193 279.5t287.5 185.5t348.5 68.5q106 0 203 -18.5t166.5 -48.5t110.5 -53t71 -46l-112 -215q-54 46 -163.5 88.5t-240.5 42.5q-153 0 -280 -52.5t-208.5 -141t-126 -200t-44.5 -232.5
q0 -122 44.5 -234t126 -200t208.5 -140.5t280 -52.5q131 0 240.5 42.5t163.5 88.5l112 -215q-30 -23 -71 -46t-110.5 -53t-166.5 -48.5t-203 -18.5q-23 0 -73 4l-39 -121q20 5 55 5q87 0 154 -59.5t67 -153.5q0 -102 -74 -173t-211 -71q-89 0 -172 47.5t-123 114.5l107 75
q28 -43 80.5 -74.5t107.5 -31.5q62 0 101 31t39 82q0 56 -41.5 89t-100.5 33q-82 0 -129 -28z" />
    <glyph glyph-name="Egrave" unicode="&#xc8;" horiz-adv-x="1177" 
d="M168 1690h901v-224h-647v-508h622v-223h-622v-512h647v-223h-901v1690zM322 2073l129 165l342 -286l-82 -111z" />
    <glyph glyph-name="Eacute" unicode="&#xc9;" horiz-adv-x="1177" 
d="M168 1690h901v-224h-647v-508h622v-223h-622v-512h647v-223h-901v1690zM444 1952l342 286l129 -165l-389 -232z" />
    <glyph glyph-name="Ecircumflex" unicode="&#xca;" horiz-adv-x="1177" 
d="M168 1690h901v-224h-647v-508h622v-223h-622v-512h647v-223h-901v1690zM209 1970l409 299l410 -299l-96 -129l-314 230l-313 -230z" />
    <glyph glyph-name="Edieresis" unicode="&#xcb;" horiz-adv-x="1177" 
d="M168 1690h901v-224h-647v-508h622v-223h-622v-512h647v-223h-901v1690zM244 2071q0 55 38.5 94t92.5 39t92.5 -39t38.5 -94t-38.5 -94.5t-92.5 -39.5t-92.5 39.5t-38.5 94.5zM731 2071q0 55 38.5 94t92.5 39t92.5 -39t38.5 -94t-38.5 -94.5t-92.5 -39.5t-92.5 39.5
t-38.5 94.5z" />
    <glyph glyph-name="Igrave" unicode="&#xcc;" horiz-adv-x="589" 
d="M168 1690h254v-1690h-254v1690zM-94 2073l129 165l342 -286l-82 -111z" />
    <glyph glyph-name="Iacute" unicode="&#xcd;" horiz-adv-x="589" 
d="M168 1690h254v-1690h-254v1690zM213 1952l342 286l129 -165l-389 -232z" />
    <glyph glyph-name="Icircumflex" unicode="&#xce;" horiz-adv-x="589" 
d="M168 1690h254v-1690h-254v1690zM-115 1970l410 299l410 -299l-97 -129l-313 230l-313 -230z" />
    <glyph glyph-name="Idieresis" unicode="&#xcf;" horiz-adv-x="589" 
d="M168 1690h254v-1690h-254v1690zM-80 2071q0 55 38.5 94t92.5 39t92.5 -39t38.5 -94t-38.5 -94.5t-92.5 -39.5t-92.5 39.5t-38.5 94.5zM408 2071q0 55 38.5 94t92.5 39t92.5 -39t38.5 -94t-38.5 -94.5t-92.5 -39.5t-92.5 39.5t-38.5 94.5z" />
    <glyph glyph-name="Eth" unicode="&#xd0;" horiz-adv-x="1533" 
d="M168 1690h428q172 0 328 -63.5t271.5 -173.5t184 -269t68.5 -340q-1 -181 -69.5 -339.5t-183.5 -268.5t-271 -173t-328 -63h-428v741h-168v207h168v742zM422 1462v-514h354v-207h-354v-514h147q170 0 309 80t218.5 221.5t79.5 315.5t-80 316t-219 222t-308 80h-147z" />
    <glyph glyph-name="Ntilde" unicode="&#xd1;" horiz-adv-x="1654" 
d="M281 2064q54 82 91 122q111 118 234 118q134 0 279 -106q99 -74 172 -74q26 0 51.5 10t43 22.5t37 35t28 35t22 34.5t14.5 23l129 -115q-54 -82 -91 -122q-111 -118 -234 -118q-133 0 -279 107q-98 73 -172 73q-26 0 -51.5 -10t-43 -22.5t-37 -35t-28 -34t-22.5 -34.5
l-14 -23zM168 1690h254l811 -1264v1264h254v-1690h-254l-811 1262v-1262h-254v1690z" />
    <glyph glyph-name="Ograve" unicode="&#xd2;" horiz-adv-x="1880" 
d="M88 844q0 182 68 345t183 279t272 184t329 68t329 -68t272 -184t183 -279t68 -345t-68 -345t-183 -279.5t-272 -184.5t-329 -68t-329 68t-272 184.5t-183 279.5t-68 345zM362 844q0 -169 70.5 -312.5t204 -232t303.5 -88.5t303.5 88.5t204 232t70.5 312.5t-70.5 312.5
t-204 232t-303.5 88.5t-303.5 -88.5t-204 -232t-70.5 -312.5zM643 2073l129 165l342 -286l-82 -111z" />
    <glyph glyph-name="Oacute" unicode="&#xd3;" horiz-adv-x="1880" 
d="M88 844q0 182 68 345t183 279t272 184t329 68t329 -68t272 -184t183 -279t68 -345t-68 -345t-183 -279.5t-272 -184.5t-329 -68t-329 68t-272 184.5t-183 279.5t-68 345zM362 844q0 -169 70.5 -312.5t204 -232t303.5 -88.5t303.5 88.5t204 232t70.5 312.5t-70.5 312.5
t-204 232t-303.5 88.5t-303.5 -88.5t-204 -232t-70.5 -312.5zM766 1952l342 286l129 -165l-389 -232z" />
    <glyph glyph-name="Ocircumflex" unicode="&#xd4;" horiz-adv-x="1880" 
d="M88 844q0 182 68 345t183 279t272 184t329 68t329 -68t272 -184t183 -279t68 -345t-68 -345t-183 -279.5t-272 -184.5t-329 -68t-329 68t-272 184.5t-183 279.5t-68 345zM362 844q0 -169 70.5 -312.5t204 -232t303.5 -88.5t303.5 88.5t204 232t70.5 312.5t-70.5 312.5
t-204 232t-303.5 88.5t-303.5 -88.5t-204 -232t-70.5 -312.5zM530 1970l410 299l410 -299l-97 -129l-313 230l-313 -230z" />
    <glyph glyph-name="Otilde" unicode="&#xd5;" horiz-adv-x="1880" 
d="M88 844q0 182 68 345t183 279t272 184t329 68t329 -68t272 -184t183 -279t68 -345t-68 -345t-183 -279.5t-272 -184.5t-329 -68t-329 68t-272 184.5t-183 279.5t-68 345zM362 844q0 -169 70.5 -312.5t204 -232t303.5 -88.5t303.5 88.5t204 232t70.5 312.5t-70.5 312.5
t-204 232t-303.5 88.5t-303.5 -88.5t-204 -232t-70.5 -312.5zM389 2046q56 85 97 127q109 113 229 113q132 0 278 -107q99 -74 172 -74q26 0 52 10.5t43 22.5t37 34.5t28 34.5t23 35l14 23l129 -115q-57 -87 -101 -131q-108 -107 -225 -108q-133 0 -278 106q-99 74 -172 74
q-26 0 -52 -10.5t-43 -22.5t-37 -34.5t-28 -34.5t-23 -35l-14 -23z" />
    <glyph glyph-name="Odieresis" unicode="&#xd6;" horiz-adv-x="1880" 
d="M88 844q0 182 68 345t183 279t272 184t329 68t329 -68t272 -184t183 -279t68 -345t-68 -345t-183 -279.5t-272 -184.5t-329 -68t-329 68t-272 184.5t-183 279.5t-68 345zM362 844q0 -169 70.5 -312.5t204 -232t303.5 -88.5t303.5 88.5t204 232t70.5 312.5t-70.5 312.5
t-204 232t-303.5 88.5t-303.5 -88.5t-204 -232t-70.5 -312.5zM565 2071q0 55 38.5 94t92.5 39t92.5 -39t38.5 -94t-38.5 -94.5t-92.5 -39.5t-92.5 39.5t-38.5 94.5zM1053 2071q0 55 38.5 94t92.5 39t92.5 -39t38.5 -94t-38.5 -94.5t-92.5 -39.5t-92.5 39.5t-38.5 94.5z" />
    <glyph glyph-name="multiply" unicode="&#xd7;" horiz-adv-x="1224" 
d="M115 1198l145 148l352 -351l353 351l145 -148l-350 -350l350 -350l-145 -148l-353 350l-352 -350l-145 148l350 350z" />
    <glyph glyph-name="Oslash" unicode="&#xd8;" horiz-adv-x="1880" 
d="M88 844q0 182 68 345t183 279t272 184t329 68q250 0 457 -137l110 139l156 -120l-115 -146q115 -120 179.5 -277t64.5 -335q0 -182 -68 -345t-183 -279.5t-272 -184.5t-329 -68q-250 0 -459 135l-104 -133l-156 121l109 139q-115 119 -178.5 278t-63.5 337zM362 844
q0 -235 130 -410l751 955q-134 88 -303 88q-170 0 -303.5 -88.5t-204 -232t-70.5 -312.5zM637 299q134 -88 303 -88q170 0 303.5 88.5t204 232t70.5 312.5q0 229 -132 407z" />
    <glyph glyph-name="Ugrave" unicode="&#xd9;" horiz-adv-x="1531" 
d="M150 1690h253v-1020q0 -238 89 -345.5t274 -107.5q184 0 273 107.5t89 345.5v1020h254v-1088q0 -312 -158 -473.5t-458 -161.5t-458 161.5t-158 473.5v1088zM469 2073l129 165l342 -286l-82 -111z" />
    <glyph glyph-name="Uacute" unicode="&#xda;" horiz-adv-x="1531" 
d="M150 1690h253v-1020q0 -238 89 -345.5t274 -107.5q184 0 273 107.5t89 345.5v1020h254v-1088q0 -312 -158 -473.5t-458 -161.5t-458 161.5t-158 473.5v1088zM592 1946l342 286l129 -166l-389 -231z" />
    <glyph glyph-name="Ucircumflex" unicode="&#xdb;" horiz-adv-x="1531" 
d="M150 1690h253v-1020q0 -238 89 -345.5t274 -107.5q184 0 273 107.5t89 345.5v1020h254v-1088q0 -312 -158 -473.5t-458 -161.5t-458 161.5t-158 473.5v1088zM356 1970l410 299l410 -299l-97 -129l-313 230l-313 -230z" />
    <glyph glyph-name="Udieresis" unicode="&#xdc;" horiz-adv-x="1531" 
d="M150 1690h253v-1020q0 -238 89 -345.5t274 -107.5q184 0 273 107.5t89 345.5v1020h254v-1088q0 -312 -158 -473.5t-458 -161.5t-458 161.5t-158 473.5v1088zM391 2071q0 55 38.5 94t92.5 39t92.5 -39t38.5 -94t-38.5 -94.5t-92.5 -39.5t-92.5 39.5t-38.5 94.5zM879 2071
q0 55 38.5 94t92.5 39t92.5 -39t38.5 -94t-38.5 -94.5t-92.5 -39.5t-92.5 39.5t-38.5 94.5z" />
    <glyph glyph-name="Yacute" unicode="&#xdd;" horiz-adv-x="1384" 
d="M1114 1690h305l-600 -947v-743h-254v743l-600 947h305l422 -684zM498 1952l342 286l129 -165l-389 -232z" />
    <glyph glyph-name="Thorn" unicode="&#xde;" horiz-adv-x="1617" 
d="M168 1690h254v-342h262q252 0 403.5 -130.5t151.5 -365.5q0 -237 -152.5 -377.5t-402.5 -140.5h-262v-334h-254v1690zM422 1143v-602h188q162 0 260.5 79t98.5 224q0 146 -98 222.5t-261 76.5h-188z" />
    <glyph glyph-name="germandbls" unicode="&#xdf;" horiz-adv-x="1327" 
d="M205 1305q0 138 67 250.5t178.5 174.5t241.5 62q213 0 353.5 -138t140.5 -339q0 -126 -63.5 -223t-170.5 -150q136 -56 216.5 -171t80.5 -271q0 -228 -165.5 -380.5t-417.5 -152.5h-84v221h39q95 0 169 27.5t117.5 74t65.5 103t22 119.5q0 151 -99 240.5t-243 89.5h-71
v190h41q165 0 250 83t85 200q0 119 -74.5 194.5t-191.5 75.5t-181.5 -90t-64.5 -244v-1251h-241v709h-135v190h135v406z" />
    <glyph glyph-name="agrave" unicode="&#xe0;" 
d="M90 524q0 237 149 397t375 160q125 0 227 -52.5t167 -147.5v168h241v-1049h-241v174q-63 -95 -167 -151t-227 -56q-226 0 -375 160t-149 397zM342 524q0 -154 94.5 -252t243.5 -98q147 0 241.5 98.5t94.5 251.5q0 154 -96 252t-240 98q-146 0 -242 -98t-96 -252z
M393 1434l129 165l342 -286l-82 -111z" />
    <glyph glyph-name="aacute" unicode="&#xe1;" 
d="M90 524q0 237 149 397t375 160q125 0 227 -52.5t167 -147.5v168h241v-1049h-241v174q-63 -95 -167 -151t-227 -56q-226 0 -375 160t-149 397zM342 524q0 -154 94.5 -252t243.5 -98q147 0 241.5 98.5t94.5 251.5q0 154 -96 252t-240 98q-146 0 -242 -98t-96 -252z
M393 1313l342 286l129 -165l-389 -232z" />
    <glyph glyph-name="acircumflex" unicode="&#xe2;" 
d="M90 524q0 237 149 397t375 160q125 0 227 -52.5t167 -147.5v168h241v-1049h-241v174q-63 -95 -167 -151t-227 -56q-226 0 -375 160t-149 397zM342 524q0 -154 94.5 -252t243.5 -98q147 0 241.5 98.5t94.5 251.5q0 154 -96 252t-240 98q-146 0 -242 -98t-96 -252z
M260 1331l410 299l409 -299l-96 -129l-313 230l-314 -230z" />
    <glyph glyph-name="atilde" unicode="&#xe3;" 
d="M90 524q0 237 149 397t375 160q125 0 227 -52.5t167 -147.5v168h241v-1049h-241v174q-63 -95 -167 -151t-227 -56q-226 0 -375 160t-149 397zM342 524q0 -154 94.5 -252t243.5 -98q147 0 241.5 98.5t94.5 251.5q0 154 -96 252t-240 98q-146 0 -242 -98t-96 -252z
M119 1356q55 83 94 124q110 115 231 115q134 0 279 -106q99 -74 172 -74q26 0 52 10.5t43 22.5t37 34.5t28 34.5t23 35l14 23l129 -115q-57 -87 -101 -131q-108 -107 -225 -108q-134 0 -279 106q-99 74 -172 74q-26 0 -51.5 -10t-43 -22.5t-37 -35t-28 -35t-22 -34.5
t-14.5 -23z" />
    <glyph glyph-name="adieresis" unicode="&#xe4;" 
d="M295 1432q0 55 38.5 94t92.5 39t92.5 -39t38.5 -94t-38.5 -94.5t-92.5 -39.5t-92.5 39.5t-38.5 94.5zM782 1432q0 55 38.5 94t92.5 39t92.5 -39t38.5 -94t-38.5 -94.5t-92.5 -39.5t-92.5 39.5t-38.5 94.5zM90 524q0 237 149 397t375 160q125 0 227 -52.5t167 -147.5v168
h241v-1049h-241v174q-63 -95 -167 -151t-227 -56q-226 0 -375 160t-149 397zM342 524q0 -154 94.5 -252t243.5 -98q147 0 241.5 98.5t94.5 251.5q0 154 -96 252t-240 98q-146 0 -242 -98t-96 -252z" />
    <glyph glyph-name="aring" unicode="&#xe5;" 
d="M90 524q0 237 149 397t375 160q125 0 227 -52.5t167 -147.5v168h241v-1049h-241v174q-63 -95 -167 -151t-227 -56q-226 0 -375 160t-149 397zM342 524q0 -154 94.5 -252t243.5 -98q147 0 241.5 98.5t94.5 251.5q0 154 -96 252t-240 98q-146 0 -242 -98t-96 -252z
M393 1501q0 106 79.5 176t197.5 70t197 -69.5t79 -176.5q0 -109 -76.5 -178.5t-199.5 -69.5q-124 0 -200.5 69.5t-76.5 178.5zM537 1501q0 -56 37 -92.5t96 -36.5q58 0 95.5 36.5t37.5 92.5q0 53 -38 89t-95 36q-56 0 -94.5 -36.5t-38.5 -88.5z" />
    <glyph glyph-name="ae" unicode="&#xe6;" horiz-adv-x="2066" 
d="M588 1081q134 0 248 -44t184 -130q80 82 186.5 128t225.5 46q115 0 216 -39t175 -109.5t116.5 -174t42.5 -226.5v-36h-866q0 -103 49.5 -181t125.5 -115.5t165 -37.5q108 0 184 37.5t142 122.5l174 -91q-82 -132 -214 -198t-302 -66q-134 0 -251.5 55t-195.5 150
q-19 -29 -57.5 -62t-95 -66t-135 -55t-160.5 -22q-172 0 -286 90t-114 234q0 147 108 242.5t284 95.5q117 0 202.5 -31t132.5 -80v105q0 122 -80.5 193t-203.5 71q-110 0 -186 -31.5t-107 -64.5l-84 161q34 44 135.5 86.5t241.5 42.5zM383 309q0 -84 71.5 -136t178.5 -52
q103 0 176.5 54.5t73.5 133.5t-73 132t-177 53q-107 0 -178.5 -50.5t-71.5 -134.5zM1124 635h625q-15 125 -100 194.5t-211 69.5q-133 0 -219 -71.5t-95 -192.5z" />
    <glyph glyph-name="ccedilla" unicode="&#xe7;" horiz-adv-x="1091" 
d="M430 -254l78 242q-184 47 -304 194.5t-120 341.5q0 155 78.5 283.5t210 201t284.5 72.5q69 0 132 -12t107.5 -31t71.5 -34.5t46 -30.5l-88 -164q-33 28 -96 51t-140 23q-150 0 -251 -103t-101 -256q0 -152 100.5 -255t251.5 -103q77 0 140 23t96 51l88 -164
q-28 -22 -66 -43t-119.5 -43.5t-171.5 -22.5q-27 0 -39 2l-36 -119q20 5 55 5q87 0 154 -59.5t67 -153.5q0 -102 -74 -173t-211 -71q-89 0 -171.5 47.5t-122.5 114.5l106 75q28 -43 80.5 -74.5t107.5 -31.5q62 0 101 31t39 82q0 56 -41.5 89t-100.5 33q-82 0 -129 -28z" />
    <glyph glyph-name="egrave" unicode="&#xe8;" horiz-adv-x="1282" 
d="M84 526q0 151 76 279t205.5 202t281.5 74q154 0 279 -66.5t198.5 -193t73.5 -289.5v-36h-866q0 -103 49.5 -181t125.5 -115.5t165 -37.5q108 0 183.5 37.5t141.5 122.5l174 -91q-82 -132 -214 -198t-302 -66q-156 0 -287.5 73.5t-207.5 202t-76 283.5zM340 635h625
q-15 125 -100.5 194.5t-211.5 69.5q-133 0 -218.5 -71.5t-94.5 -192.5zM365 1434l129 165l342 -286l-82 -111z" />
    <glyph glyph-name="eacute" unicode="&#xe9;" horiz-adv-x="1282" 
d="M84 526q0 151 76 279t205.5 202t281.5 74q154 0 279 -66.5t198.5 -193t73.5 -289.5v-36h-866q0 -103 49.5 -181t125.5 -115.5t165 -37.5q108 0 183.5 37.5t141.5 122.5l174 -91q-82 -132 -214 -198t-302 -66q-156 0 -287.5 73.5t-207.5 202t-76 283.5zM340 635h625
q-15 125 -100.5 194.5t-211.5 69.5q-133 0 -218.5 -71.5t-94.5 -192.5zM446 1313l342 286l130 -165l-390 -232z" />
    <glyph glyph-name="ecircumflex" unicode="&#xea;" horiz-adv-x="1282" 
d="M84 526q0 151 76 279t205.5 202t281.5 74q154 0 279 -66.5t198.5 -193t73.5 -289.5v-36h-866q0 -103 49.5 -181t125.5 -115.5t165 -37.5q108 0 183.5 37.5t141.5 122.5l174 -91q-82 -132 -214 -198t-302 -66q-156 0 -287.5 73.5t-207.5 202t-76 283.5zM340 635h625
q-15 125 -100.5 194.5t-211.5 69.5q-133 0 -218.5 -71.5t-94.5 -192.5zM231 1331l410 299l410 -299l-97 -129l-313 230l-313 -230z" />
    <glyph glyph-name="edieresis" unicode="&#xeb;" horiz-adv-x="1282" 
d="M84 526q0 151 76 279t205.5 202t281.5 74q154 0 279 -66.5t198.5 -193t73.5 -289.5v-36h-866q0 -103 49.5 -181t125.5 -115.5t165 -37.5q108 0 183.5 37.5t141.5 122.5l174 -91q-82 -132 -214 -198t-302 -66q-156 0 -287.5 73.5t-207.5 202t-76 283.5zM340 635h625
q-15 125 -100.5 194.5t-211.5 69.5q-133 0 -218.5 -71.5t-94.5 -192.5zM266 1376q0 55 38.5 94t92.5 39t92.5 -39t38.5 -94t-38.5 -94t-92.5 -39t-92.5 39t-38.5 94zM754 1376q0 55 38.5 94t92.5 39t92.5 -39t38.5 -94t-38.5 -94t-92.5 -39t-92.5 39t-38.5 94z" />
    <glyph glyph-name="igrave" unicode="&#xec;" horiz-adv-x="569" 
d="M164 1049h242v-1049h-242v1049zM-104 1434l129 165l342 -286l-82 -111z" />
    <glyph glyph-name="iacute" unicode="&#xed;" horiz-adv-x="569" 
d="M164 1049h242v-1049h-242v1049zM203 1313l342 286l129 -165l-389 -232z" />
    <glyph glyph-name="icircumflex" unicode="&#xee;" horiz-adv-x="569" 
d="M164 1049h242v-1049h-242v1049zM-125 1331l410 299l409 -299l-96 -129l-313 230l-314 -230z" />
    <glyph glyph-name="idieresis" unicode="&#xef;" horiz-adv-x="569" 
d="M164 1049h242v-1049h-242v1049zM-90 1378q0 55 38.5 94t92.5 39t92.5 -39t38.5 -94t-38.5 -94t-92.5 -39t-92.5 39t-38.5 94zM397 1378q0 55 38.5 94t92.5 39t92.5 -39t38.5 -94t-38.5 -94t-92.5 -39t-92.5 39t-38.5 94z" />
    <glyph glyph-name="eth" unicode="&#xf0;" 
d="M106 524q0 122 48 228.5t125.5 177.5t174 111t195.5 40q81 0 165.5 -32.5t137.5 -92.5q-85 273 -301 439l-166 -164l-110 110l137 138q-136 75 -248 108l62 205q169 -50 348 -152l153 152l111 -113l-127 -125q109 -81 197 -182.5t157.5 -228.5t107.5 -285t38 -334
q0 -243 -170.5 -400t-429.5 -157q-266 0 -435.5 156.5t-169.5 400.5zM358 524q0 -152 99 -250t254 -98q151 0 249.5 98t98.5 250q0 153 -99.5 251.5t-248.5 98.5q-152 0 -252.5 -98.5t-100.5 -251.5z" />
    <glyph glyph-name="ntilde" unicode="&#xf1;" horiz-adv-x="1304" 
d="M164 1049h242v-129q54 76 140.5 118.5t176.5 42.5q89 0 166.5 -25t138.5 -73.5t96 -126.5t35 -178v-678h-239v610q0 127 -65.5 204t-186.5 77q-109 0 -185.5 -76t-76.5 -172v-643h-242v1049zM111 1366q54 82 91 122q111 118 234 118q133 0 279 -107q99 -74 172 -74
q26 0 51.5 10t43 22.5t37 35t28 35t22 34.5t14.5 23l129 -115q-55 -83 -94 -124q-110 -115 -231 -115q-134 0 -279 106q-99 74 -172 74q-26 0 -51.5 -10t-43 -22.5t-37 -35t-28 -35t-22 -34.5t-14.5 -23z" />
    <glyph glyph-name="ograve" unicode="&#xf2;" horiz-adv-x="1372" 
d="M84 524q0 161 79.5 289t216.5 198t306 70t306 -70t216.5 -198t79.5 -289t-79.5 -289t-216.5 -198t-306 -70t-306 70t-216.5 198t-79.5 289zM334 524q0 -153 100 -251.5t252 -98.5t252 98.5t100 251.5t-100 251.5t-252 98.5t-252 -98.5t-100 -251.5zM410 1434l129 165
l342 -286l-82 -111z" />
    <glyph glyph-name="oacute" unicode="&#xf3;" horiz-adv-x="1372" 
d="M84 524q0 161 79.5 289t216.5 198t306 70t306 -70t216.5 -198t79.5 -289t-79.5 -289t-216.5 -198t-306 -70t-306 70t-216.5 198t-79.5 289zM334 524q0 -153 100 -251.5t252 -98.5t252 98.5t100 251.5t-100 251.5t-252 98.5t-252 -98.5t-100 -251.5zM492 1313l342 286
l129 -165l-390 -232z" />
    <glyph glyph-name="ocircumflex" unicode="&#xf4;" horiz-adv-x="1372" 
d="M84 524q0 161 79.5 289t216.5 198t306 70t306 -70t216.5 -198t79.5 -289t-79.5 -289t-216.5 -198t-306 -70t-306 70t-216.5 198t-79.5 289zM334 524q0 -153 100 -251.5t252 -98.5t252 98.5t100 251.5t-100 251.5t-252 98.5t-252 -98.5t-100 -251.5zM276 1331l410 299
l410 -299l-97 -129l-313 230l-313 -230z" />
    <glyph glyph-name="otilde" unicode="&#xf5;" horiz-adv-x="1372" 
d="M84 524q0 161 79.5 289t216.5 198t306 70t306 -70t216.5 -198t79.5 -289t-79.5 -289t-216.5 -198t-306 -70t-306 70t-216.5 198t-79.5 289zM334 524q0 -153 100 -251.5t252 -98.5t252 98.5t100 251.5t-100 251.5t-252 98.5t-252 -98.5t-100 -251.5zM135 1356
q57 87 101 131q108 107 225 108q133 0 278 -106q99 -74 172 -74q26 0 52 10.5t43 22.5t37 34.5t28 34.5t23 35l14 23l129 -115q-57 -87 -101 -131q-108 -107 -225 -108q-133 0 -278 106q-99 74 -172 74q-26 0 -52 -10.5t-43 -22.5t-37 -34.5t-28 -34.5t-23 -35l-14 -23z" />
    <glyph glyph-name="odieresis" unicode="&#xf6;" horiz-adv-x="1372" 
d="M84 524q0 161 79.5 289t216.5 198t306 70t306 -70t216.5 -198t79.5 -289t-79.5 -289t-216.5 -198t-306 -70t-306 70t-216.5 198t-79.5 289zM334 524q0 -153 100 -251.5t252 -98.5t252 98.5t100 251.5t-100 251.5t-252 98.5t-252 -98.5t-100 -251.5zM311 1432
q0 55 38.5 94t92.5 39t92.5 -39t38.5 -94t-38.5 -94.5t-92.5 -39.5t-92.5 39.5t-38.5 94.5zM799 1432q0 55 38.5 94t92.5 39t92.5 -39t38.5 -94t-38.5 -94.5t-92.5 -39.5t-92.5 39.5t-38.5 94.5z" />
    <glyph glyph-name="divide" unicode="&#xf7;" horiz-adv-x="1323" 
d="M662 1452q49 0 83.5 -34.5t34.5 -84.5t-34.5 -84.5t-83.5 -34.5q-50 0 -84.5 35t-34.5 84t34.5 84t84.5 35zM137 954h1049v-209h-1049v209zM662 485q50 0 84 -34.5t34 -83.5q0 -50 -34.5 -84.5t-83.5 -34.5q-50 0 -84.5 35t-34.5 84t34.5 83.5t84.5 34.5z" />
    <glyph glyph-name="oslash" unicode="&#xf8;" horiz-adv-x="1374" 
d="M84 524q0 161 79.5 289t216.5 198t306 70q244 0 418 -147l190 156l70 -84l-186 -150q110 -141 110 -332q0 -161 -79.5 -289t-216.5 -198t-306 -70q-250 0 -422 148l-192 -156l-70 84l188 152q-106 140 -106 329zM444 262q97 -88 242 -88q152 0 252 98.5t100 251.5
q0 104 -47 181zM334 524q0 -102 43 -178l547 442q-95 86 -238 86q-152 0 -252 -98.5t-100 -251.5z" />
    <glyph glyph-name="ugrave" unicode="&#xf9;" horiz-adv-x="1286" 
d="M899 1049h242v-605q0 -256 -120 -366.5t-378 -110.5t-378 110.5t-120 366.5v605h242v-551q0 -187 60.5 -259.5t195.5 -72.5t195.5 72.5t60.5 259.5v551zM367 1554l129 166l342 -286l-82 -111z" />
    <glyph glyph-name="uacute" unicode="&#xfa;" horiz-adv-x="1286" 
d="M899 1049h242v-605q0 -256 -120 -366.5t-378 -110.5t-378 110.5t-120 366.5v605h242v-551q0 -187 60.5 -259.5t195.5 -72.5t195.5 72.5t60.5 259.5v551zM449 1313l342 286l129 -165l-390 -232z" />
    <glyph glyph-name="ucircumflex" unicode="&#xfb;" horiz-adv-x="1286" 
d="M899 1049h242v-605q0 -256 -120 -366.5t-378 -110.5t-378 110.5t-120 366.5v605h242v-551q0 -187 60.5 -259.5t195.5 -72.5t195.5 72.5t60.5 259.5v551zM233 1331l410 299l410 -299l-97 -129l-313 230l-313 -230z" />
    <glyph glyph-name="udieresis" unicode="&#xfc;" horiz-adv-x="1286" 
d="M899 1049h242v-605q0 -256 -120 -366.5t-378 -110.5t-378 110.5t-120 366.5v605h242v-551q0 -187 60.5 -259.5t195.5 -72.5t195.5 72.5t60.5 259.5v551zM268 1376q0 55 38.5 94t92.5 39t92.5 -39t38.5 -94t-38.5 -94t-92.5 -39t-92.5 39t-38.5 94zM756 1376q0 55 38.5 94
t92.5 39t92.5 -39t38.5 -94t-38.5 -94t-92.5 -39t-92.5 39t-38.5 94z" />
    <glyph glyph-name="yacute" unicode="&#xfd;" horiz-adv-x="1193" 
d="M-20 1049h274l362 -727l324 727h274l-763 -1581h-277l303 618zM401 1313l342 286l129 -165l-389 -232z" />
    <glyph glyph-name="thorn" unicode="&#xfe;" horiz-adv-x="1406" 
d="M1321 524q0 -237 -149 -397t-375 -160q-123 0 -227 56t-167 151v-706h-241v2293h241v-880q65 95 167 147.5t227 52.5q226 0 375 -160t149 -397zM1069 524q0 154 -96 252t-242 98q-144 0 -240 -98t-96 -252q0 -153 94.5 -251.5t241.5 -98.5q149 0 243.5 98t94.5 252z" />
    <glyph glyph-name="ydieresis" unicode="&#xff;" horiz-adv-x="1193" 
d="M-20 1049h274l362 -727l324 727h274l-763 -1581h-277l303 618zM242 1376q0 55 38.5 94t92.5 39t92.5 -39t38.5 -94t-38.5 -94t-92.5 -39t-92.5 39t-38.5 94zM729 1376q0 55 38.5 94t92.5 39t92.5 -39t38.5 -94t-38.5 -94t-92.5 -39t-92.5 39t-38.5 94z" />
    <glyph glyph-name="Amacron" unicode="&#x100;" horiz-adv-x="1511" 
d="M338 2103h836v-166h-836v166zM637 1690h237l672 -1690h-272l-172 453h-692l-172 -453h-273zM496 676h520l-260 672z" />
    <glyph glyph-name="amacron" unicode="&#x101;" 
d="M90 524q0 237 149 397t375 160q125 0 227 -52.5t167 -147.5v168h241v-1049h-241v174q-63 -95 -167 -151t-227 -56q-226 0 -375 160t-149 397zM342 524q0 -154 94.5 -252t243.5 -98q147 0 241.5 98.5t94.5 251.5q0 154 -96 252t-240 98q-146 0 -242 -98t-96 -252z
M252 1464h835v-166h-835v166z" />
    <glyph glyph-name="Abreve" unicode="&#x102;" horiz-adv-x="1511" 
d="M637 1690h237l672 -1690h-272l-172 453h-692l-172 -453h-273zM496 676h520l-260 672zM1024 2314l174 -43q-23 -156 -143.5 -251t-298.5 -95t-299 95t-144 251l174 43q7 -31 23 -65.5t46 -75.5t82.5 -67.5t117.5 -26.5q53 0 98 18.5t73 45t50 60.5t32 60.5t15 50.5z" />
    <glyph glyph-name="abreve" unicode="&#x103;" 
d="M90 524q0 237 149 397t375 160q125 0 227 -52.5t167 -147.5v168h241v-1049h-241v174q-63 -95 -167 -151t-227 -56q-226 0 -375 160t-149 397zM342 524q0 -154 94.5 -252t243.5 -98q147 0 241.5 98.5t94.5 251.5q0 154 -96 252t-240 98q-146 0 -242 -98t-96 -252z
M938 1642l174 -43q-23 -156 -143.5 -251t-298.5 -95t-299 95t-144 251l174 43q7 -31 23 -65.5t46 -75.5t82.5 -67.5t117.5 -26.5q53 0 98 18.5t73 45t50 60.5t32 60.5t15 50.5z" />
    <glyph glyph-name="Aogonek" unicode="&#x104;" horiz-adv-x="1511" 
d="M637 1690h237l672 -1690h-125q-137 -172 -137 -301q0 -57 36.5 -90t90.5 -33q82 0 160 84l102 -76q-4 -6 -11 -16t-33 -35t-56 -44.5t-78.5 -35.5t-101.5 -16q-106 0 -182 63.5t-76 175.5q0 126 163 324h-24l-172 453h-692l-172 -453h-273zM496 676h520l-260 672z" />
    <glyph glyph-name="aogonek" unicode="&#x105;" 
d="M846 -324q0 125 164 324h-2v174q-63 -95 -167 -151t-227 -56q-226 0 -375 160t-149 397t149 397t375 160q125 0 227 -52.5t167 -147.5v168h241v-1049h-116q-138 -173 -138 -301q0 -57 36.5 -90t90.5 -33q82 0 160 84l102 -76q-4 -6 -11 -16t-33 -35t-56 -44.5
t-78.5 -35.5t-101.5 -16q-106 0 -182 63.5t-76 175.5zM342 524q0 -154 94.5 -252t243.5 -98q147 0 241.5 98.5t94.5 251.5q0 154 -96 252t-240 98q-146 0 -242 -98t-96 -252z" />
    <glyph glyph-name="Cacute" unicode="&#x106;" horiz-adv-x="1601" 
d="M88 844q0 180 72 342.5t193 279.5t287.5 185.5t348.5 68.5q106 0 203 -18.5t166.5 -48.5t110.5 -53t71 -46l-113 -215q-54 46 -163 88.5t-240 42.5q-153 0 -280 -52.5t-208.5 -141t-126 -200t-44.5 -232.5q0 -122 44.5 -234t126 -200t208.5 -140.5t280 -52.5
q131 0 240 42.5t163 88.5l113 -215q-30 -23 -71 -46t-110.5 -53t-166.5 -48.5t-203 -18.5q-181 0 -347.5 69t-288 186t-193.5 280t-72 342zM641 1952l342 286l129 -165l-389 -232z" />
    <glyph glyph-name="cacute" unicode="&#x107;" horiz-adv-x="1091" 
d="M926 240l88 -164q-28 -22 -66 -43t-119.5 -43.5t-171.5 -22.5q-153 0 -284.5 72.5t-210 201t-78.5 283.5t78.5 283.5t210 201t284.5 72.5q69 0 132 -12t107.5 -31t71.5 -34.5t46 -30.5l-88 -164q-33 28 -96 51t-140 23q-150 0 -251 -103t-101 -256q0 -152 100.5 -255
t251.5 -103q77 0 140 23t96 51zM354 1313l342 286l129 -165l-389 -232z" />
    <glyph glyph-name="Ccaron" unicode="&#x10c;" horiz-adv-x="1601" 
d="M88 844q0 180 72 342.5t193 279.5t287.5 185.5t348.5 68.5q106 0 203 -18.5t166.5 -48.5t110.5 -53t71 -46l-113 -215q-54 46 -163 88.5t-240 42.5q-153 0 -280 -52.5t-208.5 -141t-126 -200t-44.5 -232.5q0 -122 44.5 -234t126 -200t208.5 -140.5t280 -52.5
q131 0 240 42.5t163 88.5l113 -215q-30 -23 -71 -46t-110.5 -53t-166.5 -48.5t-203 -18.5q-181 0 -347.5 69t-288 186t-193.5 280t-72 342zM518 2140l96 129l314 -229l313 229l96 -129l-409 -299z" />
    <glyph glyph-name="ccaron" unicode="&#x10d;" horiz-adv-x="1091" 
d="M926 240l88 -164q-28 -22 -66 -43t-119.5 -43.5t-171.5 -22.5q-153 0 -284.5 72.5t-210 201t-78.5 283.5t78.5 283.5t210 201t284.5 72.5q69 0 132 -12t107.5 -31t71.5 -34.5t46 -30.5l-88 -164q-33 28 -96 51t-140 23q-150 0 -251 -103t-101 -256q0 -152 100.5 -255
t251.5 -103q77 0 140 23t96 51zM186 1501l97 129l313 -229l313 229l97 -129l-410 -299z" />
    <glyph glyph-name="Dcaron" unicode="&#x10e;" horiz-adv-x="1536" 
d="M168 1690h428q172 0 328 -63.5t271.5 -174t184 -269.5t68.5 -339q0 -181 -68 -339.5t-183.5 -268.5t-271.5 -173t-329 -63h-428v1690zM422 1462v-1235h147q169 0 308 80t219 221.5t80 315.5t-80 316t-219 222t-308 80h-147zM324 2140l96 129l313 -229l314 229l96 -129
l-410 -299z" />
    <glyph glyph-name="dcaron" unicode="&#x10f;" 
d="M90 524q0 237 149 397t375 160q125 0 227 -52.5t167 -147.5v880h241v-1761h-241v174q-63 -95 -167 -151t-227 -56q-226 0 -375 160t-149 397zM342 524q0 -154 94.5 -252t243.5 -98q147 0 241.5 98.5t94.5 251.5q0 154 -96 252t-240 98q-146 0 -242 -98t-96 -252z
M1501 1688q54 0 91.5 -38.5t37.5 -93.5q0 -196 -190 -354l-54 43q0 1 7 9.5t13 17t15 22.5t16.5 29.5t15.5 33.5t13.5 39.5t8.5 43.5q-44 8 -73.5 40.5t-29.5 75.5q0 55 38 93.5t91 38.5z" />
    <glyph glyph-name="Dcroat" unicode="&#x110;" horiz-adv-x="1536" 
d="M168 1690h428q172 0 328 -63.5t271.5 -173.5t184 -268.5t68.5 -338.5q0 -181 -68 -340t-183.5 -269t-271.5 -173.5t-329 -63.5h-428v741h-168v207h168v742zM422 1462v-514h354v-207h-354v-514h147q169 0 308 80t219 221.5t80 315.5t-80 316t-219 222t-308 80h-147z" />
    <glyph glyph-name="dcroat" unicode="&#x111;" 
d="M90 524q0 237 149 397t375 160q125 0 227 -52.5t167 -147.5v442h-346v160h346v278h241v-278h154v-160h-154v-1323h-241v174q-63 -95 -167 -151t-227 -56q-226 0 -375 160t-149 397zM342 524q0 -154 94.5 -252t243.5 -98q147 0 241.5 98.5t94.5 251.5q0 154 -96 252
t-240 98q-146 0 -242 -98t-96 -252z" />
    <glyph glyph-name="Emacron" unicode="&#x112;" horiz-adv-x="1177" 
d="M168 1690h901v-224h-647v-508h622v-223h-622v-512h647v-223h-901v1690zM201 2103h835v-166h-835v166z" />
    <glyph glyph-name="emacron" unicode="&#x113;" horiz-adv-x="1282" 
d="M84 526q0 151 76 279t205.5 202t281.5 74q154 0 279 -66.5t198.5 -193t73.5 -289.5v-36h-866q0 -103 49.5 -181t125.5 -115.5t165 -37.5q108 0 183.5 37.5t141.5 122.5l174 -91q-82 -132 -214 -198t-302 -66q-156 0 -287.5 73.5t-207.5 202t-76 283.5zM340 635h625
q-15 125 -100.5 194.5t-211.5 69.5q-133 0 -218.5 -71.5t-94.5 -192.5zM223 1464h836v-166h-836v166z" />
    <glyph glyph-name="Edotaccent" unicode="&#x116;" horiz-adv-x="1177" 
d="M168 1690h901v-224h-647v-508h622v-223h-622v-512h647v-223h-901v1690zM618 2148q56 0 95 -39t39 -94t-39 -94t-95 -39t-94.5 39t-38.5 94t38.5 94t94.5 39z" />
    <glyph glyph-name="edotaccent" unicode="&#x117;" horiz-adv-x="1282" 
d="M84 526q0 151 76 279t205.5 202t281.5 74q154 0 279 -66.5t198.5 -193t73.5 -289.5v-36h-866q0 -103 49.5 -181t125.5 -115.5t165 -37.5q108 0 183.5 37.5t141.5 122.5l174 -91q-82 -132 -214 -198t-302 -66q-156 0 -287.5 73.5t-207.5 202t-76 283.5zM340 635h625
q-15 125 -100.5 194.5t-211.5 69.5q-133 0 -218.5 -71.5t-94.5 -192.5zM641 1509q55 0 94 -38.5t39 -94.5t-39 -94.5t-94 -38.5t-94 38.5t-39 94.5t39 94.5t94 38.5z" />
    <glyph glyph-name="Eogonek" unicode="&#x118;" horiz-adv-x="1177" 
d="M563 -324q0 125 164 324h-559v1690h901v-224h-647v-508h622v-223h-622v-512h647v-223h-219q-137 -172 -137 -301q0 -57 36.5 -90t90.5 -33q81 0 159 84l103 -76q-4 -6 -11.5 -16t-33.5 -35t-56 -44.5t-78.5 -35.5t-101.5 -16q-106 0 -182 63.5t-76 175.5z" />
    <glyph glyph-name="eogonek" unicode="&#x119;" horiz-adv-x="1282" 
d="M547 -324q0 116 137 291h-29q-156 0 -287.5 73.5t-207.5 202t-76 283.5q0 151 76 279t205.5 202t281.5 74q154 0 279 -66.5t198.5 -193t73.5 -289.5v-36h-866q0 -103 49.5 -181t125.5 -115.5t165 -37.5q108 0 183.5 37.5t141.5 122.5l174 -91q-119 -193 -350 -245
q-125 -166 -125 -287q0 -57 36.5 -90t90.5 -33q82 0 160 84l102 -76q-4 -6 -11 -16t-33 -35t-56 -44.5t-78.5 -35.5t-101.5 -16q-106 0 -182 63.5t-76 175.5zM340 635h625q-15 125 -100.5 194.5t-211.5 69.5q-133 0 -218.5 -71.5t-94.5 -192.5z" />
    <glyph glyph-name="Ecaron" unicode="&#x11a;" horiz-adv-x="1177" 
d="M168 1690h901v-224h-647v-508h622v-223h-622v-512h647v-223h-901v1690zM209 2140l96 129l313 -229l314 229l96 -129l-410 -299z" />
    <glyph glyph-name="ecaron" unicode="&#x11b;" horiz-adv-x="1282" 
d="M84 526q0 151 76 279t205.5 202t281.5 74q154 0 279 -66.5t198.5 -193t73.5 -289.5v-36h-866q0 -103 49.5 -181t125.5 -115.5t165 -37.5q108 0 183.5 37.5t141.5 122.5l174 -91q-82 -132 -214 -198t-302 -66q-156 0 -287.5 73.5t-207.5 202t-76 283.5zM340 635h625
q-15 125 -100.5 194.5t-211.5 69.5q-133 0 -218.5 -71.5t-94.5 -192.5zM231 1501l97 129l313 -229l313 229l97 -129l-410 -299z" />
    <glyph glyph-name="Gcommaaccent" unicode="&#x122;" horiz-adv-x="1777" 
d="M88 844q0 180 62.5 341.5t170.5 279t261.5 186.5t328.5 69q416 0 654 -288l-168 -183q-169 242 -471 242q-157 0 -286.5 -86.5t-203.5 -235t-74 -325.5q0 -174 75.5 -322t205.5 -234.5t283 -86.5q96 0 187 31t163 86.5t116 141.5t44 187v37h-525v199h783v-236
q0 -130 -58.5 -253t-160 -217.5t-249.5 -152t-315 -57.5q-134 0 -260 44.5t-227 125.5t-177 189t-117.5 241.5t-41.5 276.5zM911 -82q54 0 91.5 -38t37.5 -93q0 -196 -190 -354l-53 43l7 9q7 9 12.5 17.5t14.5 22.5t16.5 29t15.5 33.5t13.5 39.5t8.5 43q-44 8 -73.5 40.5
t-29.5 76.5q0 55 38 93t91 38z" />
    <glyph glyph-name="gcommaaccent" unicode="&#x123;" 
d="M342 524q0 -154 94.5 -252t243.5 -98q147 0 241.5 98.5t94.5 251.5q0 154 -96 252t-240 98q-146 0 -242 -98t-96 -252zM90 524q0 237 149 397t375 160q125 0 227 -52.5t167 -147.5v168h241v-1078q0 -255 -159 -394.5t-433 -139.5q-127 0 -231.5 29t-191.5 98.5
t-134 177.5l201 96q40 -83 132.5 -137.5t223.5 -54.5q149 0 250 88.5t101 245.5v194q-63 -95 -167 -151t-227 -56q-226 0 -375 160t-149 397zM541 1374q0 197 190 355l53 -43l-7 -9q-7 -9 -12.5 -17.5t-14.5 -22.5t-16.5 -29.5t-15.5 -33.5t-13.5 -39.5t-8.5 -43.5
q44 -8 73.5 -40.5t29.5 -76.5q0 -55 -38 -93t-91 -38q-54 0 -91.5 38t-37.5 93z" />
    <glyph glyph-name="Imacron" unicode="&#x12a;" horiz-adv-x="589" 
d="M168 1690h254v-1690h-254v1690zM-123 2103h836v-166h-836v166z" />
    <glyph glyph-name="imacron" unicode="&#x12b;" horiz-adv-x="569" 
d="M164 1049h242v-1049h-242v1049zM-133 1464h835v-166h-835v166z" />
    <glyph glyph-name="Iogonek" unicode="&#x12e;" horiz-adv-x="589" 
d="M70 -324q0 126 163 324h-65v1690h254v-1690h-66q-137 -172 -137 -301q0 -57 36.5 -90t90.5 -33q82 0 160 84l102 -76q-4 -6 -11 -16t-33 -35t-56 -44.5t-78.5 -35.5t-101.5 -16q-106 0 -182 63.5t-76 175.5z" />
    <glyph glyph-name="iogonek" unicode="&#x12f;" horiz-adv-x="569" 
d="M61 -324q0 125 164 324h-61v1049h242v-1049h-58q-137 -172 -137 -301q0 -57 36.5 -90t90.5 -33q82 0 160 84l102 -76q-4 -6 -11.5 -16t-33.5 -35t-56 -44.5t-78.5 -35.5t-101.5 -16q-106 0 -182 63.5t-76 175.5zM285 1571q67 0 113 -47t46 -113t-46 -113t-113 -47
t-113.5 47t-46.5 113t46.5 113t113.5 47z" />
    <glyph glyph-name="dotlessi" unicode="&#x131;" horiz-adv-x="569" 
d="M164 1049h242v-1049h-242v1049z" />
    <glyph glyph-name="Kcommaaccent" unicode="&#x136;" horiz-adv-x="1480" 
d="M168 1690h254v-756l686 756h309l-733 -809l825 -881h-350l-645 694l-92 -102v-592h-254v1690zM750 -82q54 0 91.5 -38t37.5 -93q0 -195 -191 -354l-53 43l7 9q7 9 12.5 17.5t14.5 22.5t16.5 29t15.5 33.5t13.5 39.5t8.5 43q-43 8 -72.5 40.5t-29.5 76.5q0 55 38 93t91 38
z" />
    <glyph glyph-name="kcommaaccent" unicode="&#x137;" horiz-adv-x="1138" 
d="M164 1761h242v-1108l364 396h309l-422 -449l529 -600h-307l-379 432l-94 -98v-334h-242v1761zM621 -82q54 0 91.5 -38t37.5 -93q0 -195 -191 -354l-53 43l7 9q7 9 12.5 17.5t14.5 22.5t16.5 29t15.5 33.5t13.5 39.5t8.5 43q-43 8 -72.5 40.5t-29.5 76.5q0 55 38 93t91 38
z" />
    <glyph glyph-name="Lacute" unicode="&#x139;" horiz-adv-x="1144" 
d="M168 1690h254v-1467h655v-223h-909v1690zM213 1952l342 286l129 -165l-389 -232z" />
    <glyph glyph-name="lacute" unicode="&#x13a;" horiz-adv-x="569" 
d="M164 1761h242v-1761h-242v1761zM203 2023l342 287l129 -166l-389 -231z" />
    <glyph glyph-name="Lcommaaccent" unicode="&#x13b;" horiz-adv-x="1144" 
d="M168 1690h254v-1467h655v-223h-909v1690zM604 -82q54 0 91.5 -38t37.5 -93q0 -196 -190 -354l-54 43q1 1 7.5 9.5t12.5 17t15 22t16.5 29t15.5 33.5t13.5 39.5t8.5 43.5q-44 8 -73.5 40.5t-29.5 76.5q0 55 38 93t91 38z" />
    <glyph glyph-name="lcommaaccent" unicode="&#x13c;" horiz-adv-x="569" 
d="M164 1761h242v-1761h-242v1761zM285 -82q54 0 91.5 -38t37.5 -93q0 -195 -191 -354l-53 43l7 9q7 9 12.5 17.5t14.5 22.5t16.5 29t15.5 33.5t13.5 39.5t8.5 43q-43 8 -72.5 40.5t-29.5 76.5q0 55 38 93t91 38z" />
    <glyph glyph-name="Lcaron" unicode="&#x13d;" horiz-adv-x="1144" 
d="M168 1690h254v-1467h655v-223h-909v1690zM870 1690q54 0 91.5 -38t37.5 -93q0 -197 -190 -355l-53 43l7 9q7 9 12.5 17.5t14.5 22.5t16.5 29.5t15.5 33.5t13.5 39.5t8.5 43.5q-44 8 -73.5 40.5t-29.5 76.5q0 55 38 93t91 38z" />
    <glyph glyph-name="lcaron" unicode="&#x13e;" horiz-adv-x="569" 
d="M164 1761h242v-1761h-242v1761zM651 1688q54 0 91.5 -38.5t37.5 -93.5q0 -196 -190 -354l-53 43l7 9q7 9 12.5 17.5t14.5 22.5t16.5 29.5t15.5 33.5t13.5 39.5t8.5 43.5q-44 8 -73.5 40.5t-29.5 75.5q0 55 38 93.5t91 38.5z" />
    <glyph glyph-name="Lslash" unicode="&#x141;" horiz-adv-x="1306" 
d="M168 764l162 127v799h254v-600l217 172v-207l-217 -172v-660h655v-223h-909v684l-162 -127v207z" />
    <glyph glyph-name="lslash" unicode="&#x142;" horiz-adv-x="741" 
d="M164 813l172 135v813h242v-622l172 135v-207l-172 -135v-932h-242v741l-172 -135v207z" />
    <glyph glyph-name="Nacute" unicode="&#x143;" horiz-adv-x="1654" 
d="M592 1952l342 286l129 -165l-389 -232zM168 1690h254l811 -1264v1264h254v-1690h-254l-811 1262v-1262h-254v1690z" />
    <glyph glyph-name="nacute" unicode="&#x144;" horiz-adv-x="1304" 
d="M164 1049h242v-129q54 76 140.5 118.5t176.5 42.5q89 0 166.5 -25t138.5 -73.5t96 -126.5t35 -178v-678h-239v610q0 127 -65.5 204t-186.5 77q-109 0 -185.5 -76t-76.5 -172v-643h-242v1049zM489 1313l342 286l130 -165l-390 -232z" />
    <glyph glyph-name="Ncommaaccent" unicode="&#x145;" horiz-adv-x="1654" 
d="M827 -82q54 0 91.5 -38t37.5 -93q0 -196 -190 -354l-53 43l7 9q7 9 12.5 17.5t14.5 22.5t16.5 29t15.5 33.5t13.5 39.5t8.5 43q-44 8 -73.5 40.5t-29.5 76.5q0 55 38 93t91 38zM168 1690h254l811 -1264v1264h254v-1690h-254l-811 1262v-1262h-254v1690z" />
    <glyph glyph-name="ncommaaccent" unicode="&#x146;" horiz-adv-x="1304" 
d="M164 1049h242v-129q54 76 140.5 118.5t176.5 42.5q89 0 166.5 -25t138.5 -73.5t96 -126.5t35 -178v-678h-239v610q0 127 -65.5 204t-186.5 77q-109 0 -185.5 -76t-76.5 -172v-643h-242v1049zM664 -82q54 0 91.5 -38t37.5 -93q0 -195 -191 -354l-53 43l7 9q7 9 12.5 17.5
t14.5 22.5t16.5 29t15.5 33.5t13.5 39.5t8.5 43q-43 8 -72.5 40.5t-29.5 76.5q0 55 38 93t91 38z" />
    <glyph glyph-name="Ncaron" unicode="&#x147;" horiz-adv-x="1654" 
d="M418 2140l96 129l313 -229l314 229l96 -129l-410 -299zM168 1690h254l811 -1264v1264h254v-1690h-254l-811 1262v-1262h-254v1690z" />
    <glyph glyph-name="ncaron" unicode="&#x148;" horiz-adv-x="1304" 
d="M164 1049h242v-129q54 76 140.5 118.5t176.5 42.5q89 0 166.5 -25t138.5 -73.5t96 -126.5t35 -178v-678h-239v610q0 127 -65.5 204t-186.5 77q-109 0 -185.5 -76t-76.5 -172v-643h-242v1049zM252 1501l96 129l314 -229l313 229l96 -129l-409 -299z" />
    <glyph glyph-name="Omacron" unicode="&#x14c;" horiz-adv-x="1880" 
d="M88 844q0 182 68 345t183 279t272 184t329 68t329 -68t272 -184t183 -279t68 -345t-68 -345t-183 -279.5t-272 -184.5t-329 -68t-329 68t-272 184.5t-183 279.5t-68 345zM362 844q0 -169 70.5 -312.5t204 -232t303.5 -88.5t303.5 88.5t204 232t70.5 312.5t-70.5 312.5
t-204 232t-303.5 88.5t-303.5 -88.5t-204 -232t-70.5 -312.5zM522 2103h836v-166h-836v166z" />
    <glyph glyph-name="omacron" unicode="&#x14d;" horiz-adv-x="1372" 
d="M84 524q0 161 79.5 289t216.5 198t306 70t306 -70t216.5 -198t79.5 -289t-79.5 -289t-216.5 -198t-306 -70t-306 70t-216.5 198t-79.5 289zM334 524q0 -153 100 -251.5t252 -98.5t252 98.5t100 251.5t-100 251.5t-252 98.5t-252 -98.5t-100 -251.5zM268 1464h836v-166
h-836v166z" />
    <glyph glyph-name="Ohungarumlaut" unicode="&#x150;" horiz-adv-x="1880" 
d="M88 844q0 182 68 345t183 279t272 184t329 68t329 -68t272 -184t183 -279t68 -345t-68 -345t-183 -279.5t-272 -184.5t-329 -68t-329 68t-272 184.5t-183 279.5t-68 345zM362 844q0 -169 70.5 -312.5t204 -232t303.5 -88.5t303.5 88.5t204 232t70.5 312.5t-70.5 312.5
t-204 232t-303.5 88.5t-303.5 -88.5t-204 -232t-70.5 -312.5zM543 1976l340 287l129 -166l-389 -231zM989 1976l340 287l131 -166l-391 -231z" />
    <glyph glyph-name="ohungarumlaut" unicode="&#x151;" horiz-adv-x="1372" 
d="M84 524q0 161 79.5 289t216.5 198t306 70t306 -70t216.5 -198t79.5 -289t-79.5 -289t-216.5 -198t-306 -70t-306 70t-216.5 198t-79.5 289zM334 524q0 -153 100 -251.5t252 -98.5t252 98.5t100 251.5t-100 251.5t-252 98.5t-252 -98.5t-100 -251.5zM268 1313l340 286
l129 -165l-389 -232zM715 1313l340 286l131 -165l-391 -232z" />
    <glyph glyph-name="OE" unicode="&#x152;" horiz-adv-x="1947" 
d="M86 844q0 175 68 332t183 269.5t272 178.5t329 66h901v-224h-647v-508h623v-223h-623v-512h647v-223h-901q-138 0 -267 41.5t-234 119t-184.5 180.5t-123 233t-43.5 270zM360 844q0 -163 70.5 -301.5t204 -224t303.5 -85.5v1221q-170 0 -303.5 -85t-204 -223.5
t-70.5 -301.5z" />
    <glyph glyph-name="oe" unicode="&#x153;" horiz-adv-x="2220" 
d="M84 524q0 161 79.5 289t216.5 198t306 70q143 0 264.5 -51.5t204.5 -144.5q80 91 192 143.5t238 52.5q154 0 279 -66.5t198.5 -193t73.5 -289.5v-36h-866q0 -103 49.5 -181t125.5 -115.5t165 -37.5q108 0 183.5 37.5t141.5 122.5l174 -91q-82 -132 -214 -198t-302 -66
q-130 0 -244.5 52.5t-193.5 144.5q-84 -93 -206 -145t-263 -52q-169 0 -306 70t-216.5 198t-79.5 289zM334 524q0 -153 100 -251.5t252 -98.5t252 98.5t100 251.5t-100 251.5t-252 98.5t-252 -98.5t-100 -251.5zM1278 635h625q-15 125 -100.5 194.5t-211.5 69.5
q-133 0 -218.5 -71.5t-94.5 -192.5z" />
    <glyph glyph-name="Racute" unicode="&#x154;" horiz-adv-x="1388" 
d="M1384 0h-323l-518 678h-121v-678h-254v1690h516q253 0 404 -129.5t151 -366.5q0 -200 -110 -332.5t-300 -169.5zM422 1485v-600h188q163 0 264 78t101 225q0 146 -100.5 221.5t-264.5 75.5h-188zM449 1942l342 286l129 -166l-390 -231z" />
    <glyph glyph-name="racute" unicode="&#x155;" horiz-adv-x="909" 
d="M164 1049h242v-154q11 24 37 53.5t65 60.5t95 51.5t116 20.5q62 0 117.5 -14.5t85.5 -34.5l-99 -205q-56 45 -170 45q-54 0 -98.5 -20t-71 -49t-45 -63.5t-25.5 -61.5t-7 -45v-633h-242v1049zM307 1313l342 286l129 -165l-389 -232z" />
    <glyph glyph-name="Rcommaaccent" unicode="&#x156;" horiz-adv-x="1388" 
d="M1384 0h-323l-518 678h-121v-678h-254v1690h516q253 0 404 -129.5t151 -366.5q0 -200 -110 -332.5t-300 -169.5zM422 1485v-600h188q163 0 264 78t101 225q0 146 -100.5 221.5t-264.5 75.5h-188zM721 -82q54 0 91.5 -38t37.5 -93q0 -195 -191 -354l-53 43l7 9
q7 9 12.5 17.5t14.5 22.5t16.5 29t15.5 33.5t13.5 39.5t8.5 43q-43 8 -72.5 40.5t-29.5 76.5q0 55 38 93t91 38z" />
    <glyph glyph-name="rcommaaccent" unicode="&#x157;" horiz-adv-x="909" 
d="M164 1049h242v-154q11 24 37 53.5t65 60.5t95 51.5t116 20.5q62 0 117.5 -14.5t85.5 -34.5l-99 -205q-56 45 -170 45q-54 0 -98.5 -20t-71 -49t-45 -63.5t-25.5 -61.5t-7 -45v-633h-242v1049zM285 -82q54 0 91.5 -38t37.5 -93q0 -195 -191 -354l-53 43l7 9q7 9 12.5 17.5
t14.5 22.5t16.5 29t15.5 33.5t13.5 39.5t8.5 43q-43 8 -72.5 40.5t-29.5 76.5q0 55 38 93t91 38z" />
    <glyph glyph-name="Rcaron" unicode="&#x158;" horiz-adv-x="1388" 
d="M1384 0h-323l-518 678h-121v-678h-254v1690h516q253 0 404 -129.5t151 -366.5q0 -200 -110 -332.5t-300 -169.5zM422 1485v-600h188q163 0 264 78t101 225q0 146 -100.5 221.5t-264.5 75.5h-188zM229 2140l97 129l313 -229l313 229l97 -129l-410 -299z" />
    <glyph glyph-name="rcaron" unicode="&#x159;" horiz-adv-x="909" 
d="M164 1049h242v-154q11 24 37 53.5t65 60.5t95 51.5t116 20.5q62 0 117.5 -14.5t85.5 -34.5l-99 -205q-56 45 -170 45q-54 0 -98.5 -20t-71 -49t-45 -63.5t-25.5 -61.5t-7 -45v-633h-242v1049zM133 1501l96 129l314 -229l313 229l96 -129l-409 -299z" />
    <glyph glyph-name="Sacute" unicode="&#x15a;" horiz-adv-x="1351" 
d="M211 1237q0 140 72 252t187 171.5t247 59.5q186 0 312.5 -69.5t184.5 -169.5l-157 -146q-102 154 -326 154q-127 0 -199.5 -71.5t-72.5 -172.5q0 -84 67 -142t191 -106q69 -28 113 -46.5t107.5 -50.5t104 -59.5t86.5 -68.5t72.5 -83t44 -97.5t17.5 -116.5
q0 -128 -46.5 -227t-128 -159.5t-185 -91t-224.5 -30.5q-124 0 -228.5 28t-175.5 75.5t-118.5 99.5t-75.5 111l170 153q142 -231 412 -231q61 0 115 13t103 41t78 80.5t29 123.5q0 48 -20.5 90t-53.5 74.5t-90.5 65.5t-114 58.5t-141.5 59.5q-176 72 -266 180.5t-90 247.5z
M528 1952l342 286l129 -165l-389 -232z" />
    <glyph glyph-name="sacute" unicode="&#x15b;" horiz-adv-x="989" 
d="M336 1313l342 286l129 -165l-389 -232zM158 776q0 138 106 221.5t287 83.5q95 0 173 -29.5t122 -66.5l-98 -141q-71 65 -197 65q-164 0 -164 -121q0 -51 46.5 -83.5t150.5 -65.5q51 -16 88.5 -30t84.5 -41.5t76.5 -59.5t50.5 -81.5t21 -109.5q0 -79 -26.5 -141
t-69 -100.5t-101 -63.5t-117 -35t-122.5 -10q-121 0 -221 50.5t-158 132.5l123 129q45 -57 118 -93t165 -36q77 0 130.5 38.5t53.5 118.5q0 24 -7 43t-22.5 34.5t-31.5 27.5t-43.5 24t-49 20t-56.5 20.5t-58 21.5q-42 17 -72.5 31.5t-67 39.5t-59.5 52.5t-39 67.5t-16 87z
" />
    <glyph glyph-name="Scedilla" unicode="&#x15e;" horiz-adv-x="1351" 
d="M537 -254l71 223q-108 7 -199.5 37.5t-155 76t-106 95t-67.5 103.5l170 153q142 -231 412 -231q61 0 115 13t103 41t78 80.5t29 123.5q0 48 -20.5 90t-53.5 74.5t-90.5 65.5t-114 58.5t-141.5 59.5q-176 72 -266 180.5t-90 247.5q0 140 72 252t187 171.5t247 59.5
q186 0 312.5 -69.5t184.5 -169.5l-157 -146q-102 154 -326 154q-127 0 -199.5 -71.5t-72.5 -172.5q0 -84 67 -142t191 -106q69 -28 113 -46.5t107.5 -50.5t104 -59.5t86.5 -68.5t72.5 -83t44 -97.5t17.5 -116.5q0 -122 -42 -217.5t-116.5 -156t-170 -94t-208.5 -38.5
l-37 -119q20 5 55 5q87 0 154.5 -59.5t67.5 -153.5q0 -102 -74 -173t-211 -71q-89 0 -172 47.5t-123 114.5l107 75q28 -43 80.5 -74.5t107.5 -31.5q62 0 100.5 31t38.5 82q0 56 -41.5 89t-99.5 33q-82 0 -129 -28z" />
    <glyph glyph-name="scedilla" unicode="&#x15f;" horiz-adv-x="989" 
d="M158 776q0 138 106 221.5t287 83.5q95 0 173 -29.5t122 -66.5l-98 -141q-71 65 -197 65q-164 0 -164 -121q0 -51 46.5 -83.5t150.5 -65.5q51 -16 88.5 -30t84.5 -41.5t76.5 -59.5t50.5 -81.5t21 -109.5q0 -70 -20.5 -126.5t-54 -94t-81 -64.5t-97 -41t-105.5 -20
l-39 -121q20 5 55 5q87 0 154 -59.5t67 -153.5q0 -103 -73.5 -173.5t-210.5 -70.5q-89 0 -172 47.5t-123 114.5l106 75q28 -43 81 -74.5t108 -31.5q62 0 100.5 31t38.5 82q0 56 -41.5 89t-99.5 33q-82 0 -129 -28l-13 10l72 223q-108 7 -196.5 56.5t-141.5 124.5l123 129
q45 -57 118 -93t165 -36q77 0 130.5 38.5t53.5 118.5q0 24 -7 43t-22.5 34.5t-31.5 27.5t-43.5 24t-49 20t-56.5 20.5t-58 21.5q-42 17 -72.5 31.5t-67 39.5t-59.5 52.5t-39 67.5t-16 87z" />
    <glyph glyph-name="Scaron" unicode="&#x160;" horiz-adv-x="1351" 
d="M211 1237q0 140 72 252t187 171.5t247 59.5q186 0 312.5 -69.5t184.5 -169.5l-157 -146q-102 154 -326 154q-127 0 -199.5 -71.5t-72.5 -172.5q0 -84 67 -142t191 -106q69 -28 113 -46.5t107.5 -50.5t104 -59.5t86.5 -68.5t72.5 -83t44 -97.5t17.5 -116.5
q0 -128 -46.5 -227t-128 -159.5t-185 -91t-224.5 -30.5q-124 0 -228.5 28t-175.5 75.5t-118.5 99.5t-75.5 111l170 153q142 -231 412 -231q61 0 115 13t103 41t78 80.5t29 123.5q0 48 -20.5 90t-53.5 74.5t-90.5 65.5t-114 58.5t-141.5 59.5q-176 72 -266 180.5t-90 247.5z
M307 2140l96 129l314 -229l313 229l96 -129l-409 -299z" />
    <glyph glyph-name="scaron" unicode="&#x161;" horiz-adv-x="989" 
d="M141 1501l97 129l313 -229l313 229l97 -129l-410 -299zM158 776q0 138 106 221.5t287 83.5q95 0 173 -29.5t122 -66.5l-98 -141q-71 65 -197 65q-164 0 -164 -121q0 -51 46.5 -83.5t150.5 -65.5q51 -16 88.5 -30t84.5 -41.5t76.5 -59.5t50.5 -81.5t21 -109.5
q0 -79 -26.5 -141t-69 -100.5t-101 -63.5t-117 -35t-122.5 -10q-121 0 -221 50.5t-158 132.5l123 129q45 -57 118 -93t165 -36q77 0 130.5 38.5t53.5 118.5q0 24 -7 43t-22.5 34.5t-31.5 27.5t-43.5 24t-49 20t-56.5 20.5t-58 21.5q-42 17 -72.5 31.5t-67 39.5t-59.5 52.5
t-39 67.5t-16 87z" />
    <glyph glyph-name="Tcommaaccent" unicode="&#x162;" horiz-adv-x="1208" 
d="M10 1690h1188v-224h-469v-1466h-254v1466h-465v224zM602 -117q54 0 91.5 -38t37.5 -93q0 -196 -190 -354l-54 43l7 9q7 9 12.5 17.5t14.5 22.5t16.5 29t15.5 33.5t13.5 39.5t8.5 43q-43 8 -72.5 40.5t-29.5 76.5q0 55 38 93t91 38z" />
    <glyph glyph-name="tcommaaccent" unicode="&#x163;" horiz-adv-x="727" 
d="M76 1049h125v393h241v-393h244v-183h-244v-512q0 -88 25.5 -130t83.5 -42q25 0 50 8t37 16l13 9l60 -192q-10 -6 -27.5 -15.5t-73.5 -25t-112 -15.5q-297 0 -297 344v555h-125v183zM444 -82q54 0 91.5 -38t37.5 -93q0 -196 -190 -354l-53 43l7 9q7 9 12.5 17.5t14.5 22.5
t16.5 29t15.5 33.5t13.5 39.5t8.5 43q-44 8 -73.5 40.5t-29.5 76.5q0 55 38 93t91 38z" />
    <glyph glyph-name="Tcaron" unicode="&#x164;" horiz-adv-x="1208" 
d="M10 1690h1188v-224h-469v-1466h-254v1466h-465v224zM193 2140l96 129l313 -229l313 229l97 -129l-410 -299z" />
    <glyph glyph-name="tcaron" unicode="&#x165;" horiz-adv-x="727" 
d="M76 1049h125v393h241v-393h244v-183h-244v-512q0 -88 25.5 -130t83.5 -42q25 0 50 8t37 16l13 9l60 -192q-10 -6 -27.5 -15.5t-73.5 -25t-112 -15.5q-297 0 -297 344v555h-125v183zM788 1688q54 0 92 -38.5t38 -93.5q0 -195 -191 -354l-53 43l7 9q7 9 12.5 17.5
t14.5 22.5t16.5 29.5t15.5 33.5t13.5 39.5t8.5 43.5q-44 8 -73.5 40.5t-29.5 75.5q0 55 38 93.5t91 38.5z" />
    <glyph glyph-name="Umacron" unicode="&#x16a;" horiz-adv-x="1531" 
d="M150 1690h253v-1020q0 -238 89 -345.5t274 -107.5q184 0 273 107.5t89 345.5v1020h254v-1088q0 -312 -158 -473.5t-458 -161.5t-458 161.5t-158 473.5v1088zM348 2103h836v-166h-836v166z" />
    <glyph glyph-name="umacron" unicode="&#x16b;" horiz-adv-x="1286" 
d="M899 1049h242v-605q0 -256 -120 -366.5t-378 -110.5t-378 110.5t-120 366.5v605h242v-551q0 -187 60.5 -259.5t195.5 -72.5t195.5 72.5t60.5 259.5v551zM225 1464h836v-166h-836v166z" />
    <glyph glyph-name="Uring" unicode="&#x16e;" horiz-adv-x="1531" 
d="M150 1690h253v-1020q0 -238 89 -345.5t274 -107.5q184 0 273 107.5t89 345.5v1020h254v-1088q0 -312 -158 -473.5t-458 -161.5t-458 161.5t-158 473.5v1088zM489 2095q0 106 79.5 176t197.5 70t197 -69.5t79 -176.5q0 -109 -76.5 -178.5t-199.5 -69.5q-124 0 -200.5 69.5
t-76.5 178.5zM633 2095q0 -56 37 -92.5t96 -36.5q58 0 95.5 36.5t37.5 92.5q0 53 -38 89t-95 36q-56 0 -94.5 -36.5t-38.5 -88.5z" />
    <glyph glyph-name="uring" unicode="&#x16f;" horiz-adv-x="1286" 
d="M899 1049h242v-605q0 -256 -120 -366.5t-378 -110.5t-378 110.5t-120 366.5v605h242v-551q0 -187 60.5 -259.5t195.5 -72.5t195.5 72.5t60.5 259.5v551zM367 1499q0 107 79 176.5t197 69.5t197.5 -70t79.5 -176q0 -109 -77 -178.5t-200 -69.5q-124 0 -200 69.5t-76 178.5
zM510 1499q0 -56 37 -92.5t96 -36.5q58 0 95.5 36.5t37.5 92.5q0 53 -38 89t-95 36q-56 0 -94.5 -36.5t-38.5 -88.5z" />
    <glyph glyph-name="Uhungarumlaut" unicode="&#x170;" horiz-adv-x="1531" 
d="M150 1690h253v-1020q0 -238 89 -345.5t274 -107.5q184 0 273 107.5t89 345.5v1020h254v-1088q0 -312 -158 -473.5t-458 -161.5t-458 161.5t-158 473.5v1088zM369 1976l340 287l129 -166l-389 -231zM815 1976l340 287l131 -166l-391 -231z" />
    <glyph glyph-name="uhungarumlaut" unicode="&#x171;" horiz-adv-x="1286" 
d="M899 1049h242v-605q0 -256 -120 -366.5t-378 -110.5t-378 110.5t-120 366.5v605h242v-551q0 -187 60.5 -259.5t195.5 -72.5t195.5 72.5t60.5 259.5v551zM225 1313l340 286l129 -165l-389 -232zM672 1313l340 286l131 -165l-391 -232z" />
    <glyph glyph-name="Uogonek" unicode="&#x172;" horiz-adv-x="1531" 
d="M547 -324q0 115 141 295q-264 20 -401 179.5t-137 451.5v1088h253v-1020q0 -238 89 -345.5t274 -107.5q184 0 273 107.5t89 345.5v1020h254v-1088q0 -301 -147 -461.5t-426 -171.5q-113 -158 -113 -270q0 -57 36.5 -90t90.5 -33q82 0 160 84l102 -76q-4 -6 -11 -16
t-33 -35t-56 -44.5t-78.5 -35.5t-101.5 -16q-106 0 -182 63.5t-76 175.5z" />
    <glyph glyph-name="uogonek" unicode="&#x173;" horiz-adv-x="1286" 
d="M424 -324q0 117 139 295q-215 14 -316.5 125.5t-101.5 347.5v605h242v-551q0 -187 60.5 -259.5t195.5 -72.5t195.5 72.5t60.5 259.5v551h242v-605q0 -246 -110 -356.5t-345 -118.5q-113 -158 -113 -270q0 -57 36.5 -90t90.5 -33q82 0 160 84l103 -76q-4 -6 -11.5 -16
t-33.5 -35t-56 -44.5t-78.5 -35.5t-101.5 -16q-106 0 -182 63.5t-76 175.5z" />
    <glyph glyph-name="Ydieresis" unicode="&#x178;" horiz-adv-x="1384" 
d="M1114 1690h305l-600 -947v-743h-254v743l-600 947h305l422 -684zM317 2071q0 55 39 94t93 39t92.5 -39t38.5 -94t-38.5 -94.5t-92.5 -39.5t-93 39.5t-39 94.5zM805 2071q0 55 38.5 94t92.5 39t92.5 -39t38.5 -94t-38.5 -94.5t-92.5 -39.5t-92.5 39.5t-38.5 94.5z" />
    <glyph glyph-name="Zacute" unicode="&#x179;" horiz-adv-x="1560" 
d="M178 1690h1321l-989 -1465h934v-225h-1383l988 1464h-871v226zM664 1950l342 286l129 -165l-390 -232z" />
    <glyph glyph-name="zacute" unicode="&#x17a;" horiz-adv-x="663" 
d="M-188 1049h1001l-668 -861h635v-188h-1050l665 860h-583v189zM117 1313l342 286l129 -165l-389 -232z" />
    <glyph glyph-name="Zdotaccent" unicode="&#x17b;" horiz-adv-x="1560" 
d="M178 1690h1321l-989 -1465h934v-225h-1383l988 1464h-871v226zM838 2148q56 0 94.5 -39t38.5 -94t-38.5 -94t-94.5 -39t-94.5 39t-38.5 94t38.5 94t94.5 39z" />
    <glyph glyph-name="zdotaccent" unicode="&#x17c;" horiz-adv-x="663" 
d="M-188 1049h1001l-668 -861h635v-188h-1050l665 860h-583v189zM311 1565q55 0 94 -38.5t39 -94.5t-39 -95t-94 -39t-94 39t-39 95t39 94.5t94 38.5z" />
    <glyph glyph-name="Zcaron" unicode="&#x17d;" horiz-adv-x="1560" 
d="M178 1690h1321l-989 -1465h934v-225h-1383l988 1464h-871v226zM428 2140l96 129l314 -229l313 229l96 -129l-409 -299z" />
    <glyph glyph-name="zcaron" unicode="&#x17e;" horiz-adv-x="663" 
d="M-188 1049h1001l-668 -861h635v-188h-1050l665 860h-583v189zM-98 1501l96 129l313 -229l314 229l96 -129l-410 -299z" />
    <glyph glyph-name="Scommaaccent" unicode="&#x218;" horiz-adv-x="1351" 
d="M211 1237q0 140 72 252t187 171.5t247 59.5q186 0 312.5 -69.5t184.5 -169.5l-157 -146q-102 154 -326 154q-127 0 -199.5 -71.5t-72.5 -172.5q0 -84 67 -142t191 -106q69 -28 113 -46.5t107.5 -50.5t104 -59.5t86.5 -68.5t72.5 -83t44 -97.5t17.5 -116.5
q0 -128 -46.5 -227t-128 -159.5t-185 -91t-224.5 -30.5q-124 0 -228.5 28t-175.5 75.5t-118.5 99.5t-75.5 111l170 153q142 -231 412 -231q61 0 115 13t103 41t78 80.5t29 123.5q0 48 -20.5 90t-53.5 74.5t-90.5 65.5t-114 58.5t-141.5 59.5q-176 72 -266 180.5t-90 247.5z
M678 -82q54 0 91.5 -38t37.5 -93q0 -195 -191 -354l-53 43l7 9q7 9 12.5 17.5t14.5 22.5t16.5 29t15.5 33.5t13.5 39.5t8.5 43q-43 8 -72.5 40.5t-29.5 76.5q0 55 38 93t91 38z" />
    <glyph glyph-name="scommaaccent" unicode="&#x219;" horiz-adv-x="989" 
d="M469 -82q54 0 91.5 -38t37.5 -93q0 -196 -190 -354l-54 43l7 9q7 9 12.5 17.5t14.5 22.5t16.5 29t15.5 33.5t13.5 39.5t8.5 43q-43 8 -72.5 40.5t-29.5 76.5q0 55 38 93t91 38zM158 776q0 138 106 221.5t287 83.5q95 0 173 -29.5t122 -66.5l-98 -141q-71 65 -197 65
q-164 0 -164 -121q0 -51 46.5 -83.5t150.5 -65.5q51 -16 88.5 -30t84.5 -41.5t76.5 -59.5t50.5 -81.5t21 -109.5q0 -79 -26.5 -141t-69 -100.5t-101 -63.5t-117 -35t-122.5 -10q-121 0 -221 50.5t-158 132.5l123 129q45 -57 118 -93t165 -36q77 0 130.5 38.5t53.5 118.5
q0 24 -7 43t-22.5 34.5t-31.5 27.5t-43.5 24t-49 20t-56.5 20.5t-58 21.5q-42 17 -72.5 31.5t-67 39.5t-59.5 52.5t-39 67.5t-16 87z" />
    <glyph glyph-name="circumflex" unicode="&#x2c6;" horiz-adv-x="1122" 
d="M152 1421l409 299l410 -299l-97 -129l-313 230l-313 -230z" />
    <glyph glyph-name="caron" unicode="&#x2c7;" horiz-adv-x="1048" 
d="M115 1591l96 129l313 -229l314 229l96 -129l-410 -299z" />
    <glyph glyph-name="breve" unicode="&#x2d8;" horiz-adv-x="1179" 
d="M858 1720l174 -43q-23 -156 -143.5 -251t-298.5 -95t-299 95t-144 251l175 43q5 -24 15 -50.5t32 -60.5t50 -60.5t73 -45t98 -18.5t98 18.5t73 45t50 60.5t32 60.5t15 50.5z" />
    <glyph glyph-name="dotaccent" unicode="&#x2d9;" horiz-adv-x="528" 
d="M264 1565q56 0 94.5 -38.5t38.5 -94.5t-39 -95t-94 -39t-94 39t-39 95t38.5 94.5t94.5 38.5z" />
    <glyph glyph-name="ring" unicode="&#x2da;" horiz-adv-x="847" 
d="M147 1501q0 106 79.5 176t197.5 70t197 -69.5t79 -176.5q0 -109 -76.5 -178.5t-199.5 -69.5q-124 0 -200.5 69.5t-76.5 178.5zM291 1501q0 -56 37 -92.5t96 -36.5q58 0 95.5 36.5t37.5 92.5q0 53 -38 89t-95 36q-56 0 -94.5 -36.5t-38.5 -88.5z" />
    <glyph glyph-name="ogonek" unicode="&#x2db;" horiz-adv-x="784" 
d="M160 -324q0 45 22 100.5t53 102.5t62.5 87.5t53.5 63.5l22 23l86 -39q-16 -19 -35 -45t-48 -71.5t-48 -99t-19 -99.5q0 -57 36.5 -90t90.5 -33q82 0 160 84l102 -76q-4 -6 -11 -16t-33 -35t-56 -44.5t-78.5 -35.5t-101.5 -16q-106 0 -182 63.5t-76 175.5z" />
    <glyph glyph-name="tilde" unicode="&#x2dc;" horiz-adv-x="1200" 
d="M49 1356q57 87 101 131q108 107 225 108q133 0 278 -106q99 -74 172 -74q26 0 52 10.5t43 22.5t37 34.5t28 34.5t23 35l14 23l129 -115q-57 -87 -101 -131q-108 -107 -225 -108q-133 0 -278 106q-99 74 -172 74q-26 0 -52 -10.5t-43 -22.5t-37 -34.5t-28 -34.5t-23 -35
l-14 -23z" />
    <glyph glyph-name="hungarumlaut" unicode="&#x2dd;" horiz-adv-x="1257" 
d="M170 1434l340 286l129 -166l-389 -231zM616 1434l340 286l131 -166l-391 -231z" />
    <glyph glyph-name="endash" unicode="&#x2013;" horiz-adv-x="1157" 
d="M90 696h983v-207h-983v207z" />
    <glyph glyph-name="emdash" unicode="&#x2014;" horiz-adv-x="2117" 
d="M90 696h1944v-207h-1944v207z" />
    <glyph glyph-name="quoteleft" unicode="&#x2018;" horiz-adv-x="477" 
d="M225 1124q-67 0 -114.5 47t-47.5 113q0 130 67.5 240.5t170.5 195.5l66 -55q-1 -1 -8 -10t-14.5 -19.5t-18 -26.5t-20.5 -34.5t-19.5 -40.5t-17 -48t-11.5 -52q55 -11 91 -52.5t36 -97.5q0 -66 -47 -113t-113 -47z" />
    <glyph glyph-name="quoteright" unicode="&#x2019;" horiz-adv-x="477" 
d="M254 1720q67 0 114.5 -46.5t47.5 -112.5q0 -130 -67.5 -241t-170.5 -196l-65 56q1 1 8 10.5t14.5 19.5t18 26t20 34.5t19 40.5t17 48t11.5 52q-55 11 -91 52.5t-36 97.5q0 66 47 112.5t113 46.5z" />
    <glyph glyph-name="quotesinglbase" unicode="&#x201a;" horiz-adv-x="489" 
d="M266 276q67 0 114.5 -46.5t47.5 -112.5q0 -130 -67.5 -240.5t-170.5 -195.5l-65 55q1 1 8 10.5t14.5 19.5t18 26t20 34.5t19 40.5t17 48t11.5 52q-55 11 -91 52.5t-36 97.5q0 66 47 112.5t113 46.5z" />
    <glyph glyph-name="quotedblleft" unicode="&#x201c;" horiz-adv-x="858" 
d="M604 1124q-67 0 -114.5 47t-47.5 113q0 130 67.5 240.5t170.5 195.5l65 -55q-1 -1 -8 -10.5t-14.5 -19.5t-18 -26t-20 -34.5t-19 -40.5t-17 -48t-11.5 -52q55 -11 91 -52.5t36 -97.5q0 -66 -47 -113t-113 -47zM225 1124q-67 0 -114.5 47t-47.5 113q0 130 67.5 240.5
t170.5 195.5l66 -55q-1 -1 -8 -10t-14.5 -19.5t-18 -26.5t-20.5 -34.5t-19.5 -40.5t-17 -48t-11.5 -52q55 -11 91 -52.5t36 -97.5q0 -66 -47 -113t-113 -47z" />
    <glyph glyph-name="quotedblright" unicode="&#x201d;" horiz-adv-x="858" 
d="M635 1720q67 0 114.5 -46.5t47.5 -112.5q0 -130 -67.5 -241t-170.5 -196l-65 56q1 1 8 10.5t14.5 19.5t18 26t20 34.5t19 40.5t17 48t11.5 52q-55 11 -91 52.5t-36 97.5q0 66 47 112.5t113 46.5zM256 1720q67 0 114.5 -46.5t47.5 -112.5q0 -130 -67.5 -241t-170.5 -196
l-65 56q1 1 8 10.5t14.5 19.5t18 26t20 34.5t19 40.5t17 48t11.5 52q-55 11 -91 52.5t-36 97.5q0 66 47 112.5t113 46.5z" />
    <glyph glyph-name="quotedblbase" unicode="&#x201e;" horiz-adv-x="854" 
d="M637 276q67 0 114.5 -46.5t47.5 -112.5q0 -130 -67.5 -240.5t-170.5 -195.5l-65 55q1 1 8 10.5t14.5 19.5t18 26t20 34.5t19 40.5t17 48t11.5 52q-55 11 -91 52.5t-36 97.5q0 66 47 112.5t113 46.5zM258 276q67 0 114.5 -46.5t47.5 -112.5q0 -130 -67.5 -240.5
t-170.5 -195.5l-65 55q1 1 8 10.5t14.5 19.5t18 26t20 34.5t19 40.5t17 48t11.5 52q-55 11 -91 52.5t-36 97.5q0 66 47 112.5t113 46.5z" />
    <glyph glyph-name="dagger" unicode="&#x2020;" horiz-adv-x="956" 
d="M66 1286h305v475h213v-475h305v-188h-305v-1098h-213v1098h-305v188z" />
    <glyph glyph-name="daggerdbl" unicode="&#x2021;" horiz-adv-x="956" 
d="M66 1262h305v499h213v-499h305v-189h-305v-368h305v-189h-305v-516h-213v516h-305v189h305v368h-305v189z" />
    <glyph glyph-name="bullet" unicode="&#x2022;" horiz-adv-x="1019" 
d="M510 995q110 0 187 -77t77 -187t-77 -187t-187 -77t-187 77t-77 187t77 187t187 77z" />
    <glyph glyph-name="ellipsis" unicode="&#x2026;" horiz-adv-x="1587" 
d="M791 287q67 0 113 -47t46 -113t-46 -113t-113 -47t-113.5 47t-46.5 113t46.5 113t113.5 47zM1303 287q67 0 113 -47t46 -113t-46 -113t-113 -47t-113.5 47t-46.5 113t46.5 113t113.5 47zM279 287q67 0 113 -47t46 -113t-46 -113t-113 -47t-113.5 47t-46.5 113t46.5 113
t113.5 47z" />
    <glyph glyph-name="perthousand" unicode="&#x2030;" horiz-adv-x="3026" 
d="M76 1317q0 177 123 290t309 113t309 -113t123 -290t-123 -290.5t-309 -113.5t-309 113.5t-123 290.5zM250 1317q0 -115 73.5 -188.5t184.5 -73.5t184.5 73.5t73.5 188.5t-73.5 188.5t-184.5 73.5t-184.5 -73.5t-73.5 -188.5zM1092 373q0 177 123 290t309 113t309 -113
t123 -290t-123 -290.5t-309 -113.5t-309 113.5t-123 290.5zM1266 373q0 -115 73.5 -188.5t184.5 -73.5t184.5 73.5t73.5 188.5t-73.5 188.5t-184.5 73.5t-184.5 -73.5t-73.5 -188.5zM444 0l983 1690h164l-983 -1690h-164zM2087 373q0 177 123 290t309 113t309 -113t123 -290
t-123 -290.5t-309 -113.5t-309 113.5t-123 290.5zM2261 373q0 -115 73.5 -188.5t184.5 -73.5t184.5 73.5t73.5 188.5t-73.5 188.5t-184.5 73.5t-184.5 -73.5t-73.5 -188.5z" />
    <glyph glyph-name="guilsinglleft" unicode="&#x2039;" horiz-adv-x="665" 
d="M49 571l400 512l133 -104l-318 -408l318 -407l-133 -105z" />
    <glyph glyph-name="guilsinglright" unicode="&#x203a;" horiz-adv-x="665" 
d="M84 979l133 104l399 -512l-399 -512l-133 105l317 407z" />
    <glyph glyph-name="fraction" unicode="&#x2044;" horiz-adv-x="540" 
d="M-303 0l983 1690h164l-983 -1690h-164z" />
    <glyph glyph-name="Euro" unicode="&#x20ac;" horiz-adv-x="1697" 
d="M31 1092h184q85 276 325 452t535 176q105 0 202 -18.5t165.5 -48.5t110.5 -54t71 -47l-113 -215q-58 47 -165 90t-236 43q-210 0 -369 -105t-225 -273h791v-152h-848q-10 -52 -10 -96t10 -99h848v-151h-793q67 -169 223.5 -272t372.5 -103q130 0 236 42t165 87l115 -213
q-29 -23 -71 -47t-111 -54t-166 -48.5t-203 -18.5q-299 0 -537.5 176.5t-322.5 450.5h-184v151h151q-10 55 -10 99t10 96h-151v152z" />
    <glyph glyph-name="trademark" unicode="&#x2122;" horiz-adv-x="1040" 
d="M39 1690h371v-70h-148v-459h-80v459h-143v70zM481 1690h84l140 -367l139 367h84l59 -529h-80l-43 385l-135 -366h-49l-135 366l-43 -385h-80z" />
    <glyph glyph-name="minus" unicode="&#x2212;" horiz-adv-x="1273" 
d="M113 952h1048v-209h-1048v209z" />
    <glyph glyph-name="notequal" unicode="&#x2260;" horiz-adv-x="1273" 
d="M113 1176h581l176 301h164l-176 -301h303v-209h-426l-137 -236h563v-209h-682l-180 -309h-166l180 309h-200v209h321l137 236h-458v209z" />
    <glyph glyph-name="lessequal" unicode="&#x2264;" horiz-adv-x="1310" 
d="M78 287h1120v-207h-1120v207zM78 1147l1120 495v-196l-864 -379l864 -379v-196l-1120 495v160z" />
    <glyph glyph-name="greaterequal" unicode="&#x2265;" horiz-adv-x="1310" 
d="M113 287h1120v-207h-1120v207zM113 1642l1120 -495v-160l-1120 -495v196l864 379l-864 379v196z" />
    <glyph glyph-name="M.1" horiz-adv-x="1900" 
d="M1444 1690h289v-1690h-254v1141l-449 -1080h-160l-448 1080v-1141h-254v1690h289l493 -1174z" />
    <glyph glyph-name="Q.1" horiz-adv-x="1878" 
d="M1790 844q0 -302 -176.5 -535t-448.5 -309q33 -2 131 -21.5t148 -19.5q49 0 93 11.5t72 27.5t49 32.5t30 27.5l10 12l80 -172q-4 -8 -11.5 -20.5t-37 -45t-64.5 -57.5t-95 -45.5t-128 -20.5q-79 0 -154 19t-126.5 41.5t-134.5 41.5t-175 19q-55 0 -107 -14t-86.5 -34
t-61.5 -40.5t-39 -34.5l-13 -14l-62 92q5 7 14.5 19.5t39.5 44.5t62 57t79 48.5t92 29.5q-193 39 -348.5 159.5t-245.5 304t-90 396.5q0 182 68 345t183 279t272 184t329 68t329 -68t272 -184t183 -279t68 -345zM1516 844q0 169 -70.5 312.5t-204 232t-303.5 88.5
t-303.5 -88.5t-204 -232t-70.5 -312.5t70.5 -312.5t204 -232t303.5 -88.5t303.5 88.5t204 232t70.5 312.5z" />
    <glyph glyph-name="R.1" horiz-adv-x="1445" 
d="M168 1690h516q253 0 404 -129.5t151 -366.5q0 -200 -110 -332.5t-300 -169.5l332 -422q57 -71 115 -71q36 0 92 28l74 -186q-8 -8 -24 -20.5t-70 -33t-115 -20.5q-45 0 -87.5 14t-71 33.5t-50 39.5t-31.5 34l-10 14l-440 576h-121v-678h-254v1690zM422 1485v-600h188
q163 0 264 78t101 225q0 146 -100.5 221.5t-264.5 75.5h-188z" />
    <glyph glyph-name="a.1" horiz-adv-x="1277" 
d="M145 291q0 147 108 242.5t284 95.5q117 0 202.5 -31t132.5 -80v105q0 122 -80.5 193t-203.5 71q-110 0 -186 -31.5t-107 -64.5l-84 161q34 44 135.5 86.5t241.5 42.5q106 0 199 -28t167 -82.5t117 -144t43 -203.5v-623h-242v76q-125 -109 -327 -109q-172 0 -286 90
t-114 234zM383 309q0 -84 71.5 -136t178.5 -52q103 0 176.5 54.5t73.5 133.5t-73 132t-177 53q-107 0 -178.5 -50.5t-71.5 -134.5z" />
    <glyph glyph-name="j.1" horiz-adv-x="569" 
d="M285 1571q67 0 113 -47t46 -113t-46 -113t-113 -47t-113.5 47t-46.5 113t46.5 113t113.5 47zM164 1049h242v-1581h-242v1581z" />
    <glyph glyph-name="t.1" horiz-adv-x="606" 
d="M164 1442h242v-393h227v-183h-227v-866h-242v866h-141v183h141v393z" />
    <glyph glyph-name="u.1" horiz-adv-x="1304" 
d="M145 1049h240v-611q0 -127 65.5 -203.5t186.5 -76.5q109 0 185.5 76t76.5 172v643h242v-1049h-242v129q-54 -76 -140.5 -119t-176.5 -43q-71 0 -135 15.5t-119.5 48t-96 79.5t-63.5 114t-23 147v678z" />
    <glyph glyph-name="N.001" horiz-adv-x="1654" 
d="M168 1690h254l811 -1264v1264h254v-1690h-254l-811 1262v-1262h-254v1690z" />
    </font>
</defs>
</svg>
