<?xml version="1.0" standalone="no"?>
<!DOCTYPE svg PUBLIC "-//W3C//DTD SVG 1.1//EN" "http://www.w3.org/Graphics/SVG/1.1/DTD/svg11.dtd" >
<svg xmlns="http://www.w3.org/2000/svg" xmlns:xlink="http://www.w3.org/1999/xlink" version="1.1">
<metadata>
Created by FontForge 20170731 at Fri Dec 16 11:14:51 2022
 By Aleksey,,,
Copyright (c) 2017 by Matt Bailey. All rights reserved.
</metadata>
<defs>
<font id="SpartanMB-Regular" horiz-adv-x="1419" >
  <font-face 
    font-family="Spartan MB"
    font-weight="400"
    font-stretch="normal"
    units-per-em="2048"
    panose-1="0 11 5 3 8 0 0 2 0 3"
    ascent="1638"
    descent="-410"
    x-height="1049"
    cap-height="1690"
    bbox="-285 -602 2959 2361"
    underline-thickness="102"
    underline-position="-307"
    unicode-range="U+000D-FB04"
  />
<missing-glyph horiz-adv-x="700" 
 />
    <glyph glyph-name="ff" unicode="ff" horiz-adv-x="1193" 
d="M115 1049h110v354q0 190 83 289.5t227 99.5q113 0 196 -55l-65 -127q-48 24 -105 24q-80 0 -117.5 -53.5t-37.5 -175.5v-356h348v354q0 190 82.5 289.5t226.5 99.5q123 0 211 -66l-64 -129q-48 37 -118 37q-83 0 -120.5 -53.5t-37.5 -175.5v-356h264v-138h-264v-911h-180
v911h-348v-911h-181v911h-110v138z" />
    <glyph glyph-name="fi" unicode="fi" horiz-adv-x="1099" 
d="M98 1049h111v354q0 191 82 290t233 99q109 0 187 -43t123 -100l-78 -115q-37 42 -95.5 71t-115.5 29q-81 0 -118.5 -54t-37.5 -175v-356h512v-1049h-180v911h-332v-911h-180v911h-111v138z" />
    <glyph glyph-name="fl" unicode="fl" horiz-adv-x="1120" 
d="M98 1049h111v354q0 190 81.5 289.5t225.5 99.5q104 0 184 -47l-53 -135q-43 24 -102 24q-82 0 -119 -53.5t-37 -175.5v-356h262v-138h-262v-911h-180v911h-111v138zM758 1761h178v-1761h-178v1761z" />
    <glyph glyph-name="ffi" unicode="ffi" horiz-adv-x="1644" 
d="M115 1049h110v354q0 190 83 289.5t227 99.5q31 0 60 -4.5t51.5 -12.5t38 -15t30 -14.5t16.5 -8.5l-65 -127q-48 24 -105 24q-80 0 -117.5 -53.5t-37.5 -175.5v-356h350v354q0 191 82 290t233 99q109 0 186.5 -43t122.5 -100l-77 -115q-37 42 -95.5 71t-115.5 29
q-81 0 -118.5 -54t-37.5 -175v-356h510v-1049h-180v911h-330v-911h-180v911h-350v-911h-181v911h-110v138z" />
    <glyph glyph-name="ffl" unicode="ffl" horiz-adv-x="1669" 
d="M115 1049h110v354q0 190 83 289.5t227 99.5q113 0 196 -55l-65 -129q-35 26 -105 26q-80 0 -117.5 -53.5t-37.5 -175.5v-356h350v354q0 190 81.5 289.5t225.5 99.5q108 0 180 -45l-49 -137q-38 24 -102 24q-82 0 -119 -53.5t-37 -175.5v-356h264v-138h-264v-911h-180v911
h-350v-911h-181v911h-110v138zM1305 1761h180v-1761h-180v1761z" />
    <glyph glyph-name="ft" unicode="ft" horiz-adv-x="1232" 
d="M98 1049h111v354q0 190 82.5 289.5t226.5 99.5q114 0 197 -55l-64 -129q-42 26 -106 26q-81 0 -118.5 -54t-37.5 -175v-356h369v391h180v-391h256v-138h-256v-598q0 -95 28.5 -140.5t94.5 -45.5q27 0 53 8.5t38 17.5l13 9l45 -146q-8 -5 -23.5 -13.5t-65 -22
t-101.5 -13.5q-262 0 -262 318v626h-369v-911h-180v911h-111v138z" />
    <glyph glyph-name="fj" unicode="fj" horiz-adv-x="1097" 
d="M98 1049h111v354q0 191 83 290t234 99q107 0 185 -43t123 -100l-78 -115q-37 42 -96 71t-115 29q-81 0 -118.5 -54t-37.5 -175v-356h512v-1270q0 -161 -74.5 -251.5t-220.5 -90.5q-54 0 -98 9.5t-65 19.5t-46 26l56 143q14 -14 46 -26t70 -12q73 0 112.5 50.5t39.5 153.5
v1110h-332v-911h-180v911h-111v138z" />
    <glyph glyph-name="fft" unicode="fft" horiz-adv-x="1777" 
d="M115 1049h110v354q0 190 83 289.5t227 99.5q113 0 196 -55l-65 -127q-48 24 -105 24q-80 0 -117.5 -53.5t-37.5 -175.5v-356h350v354q0 190 82.5 289.5t226.5 99.5q115 0 197 -55l-64 -129q-42 26 -106 26q-81 0 -118.5 -54t-37.5 -175v-356h369v391h180v-391h256v-138
h-256v-598q0 -95 28.5 -140.5t94.5 -45.5q27 0 53 8.5t39 17.5l12 9l45 -146q-8 -5 -23.5 -13.5t-65 -22t-101.5 -13.5q-262 0 -262 318v626h-369v-911h-180v911h-350v-911h-181v911h-110v138z" />
    <glyph glyph-name="ffj" unicode="ffj" horiz-adv-x="1644" 
d="M115 1049h110v354q0 190 83 289.5t227 99.5q31 0 60 -4.5t51.5 -12.5t38 -15t30 -14.5t16.5 -8.5l-65 -127q-48 24 -105 24q-80 0 -117.5 -53.5t-37.5 -175.5v-356h350v354q0 191 83 290t234 99q107 0 184.5 -43t122.5 -100l-77 -115q-37 42 -96 71t-115 29
q-81 0 -118.5 -54t-37.5 -175v-356h512v-1270q0 -161 -74.5 -251.5t-220.5 -90.5q-54 0 -98 9.5t-65 19.5t-46 26l55 143q14 -14 46.5 -26t70.5 -12q73 0 112.5 50.5t39.5 153.5v1110h-332v-911h-180v911h-350v-911h-181v911h-110v138z" />
    <glyph glyph-name=".notdef" horiz-adv-x="700" 
 />
    <glyph glyph-name=".null" horiz-adv-x="0" 
 />
    <glyph glyph-name="nonmarkingreturn" horiz-adv-x="682" 
 />
    <glyph glyph-name="NULL" horiz-adv-x="0" 
 />
    <glyph glyph-name="NULL" horiz-adv-x="0" 
 />
    <glyph glyph-name="CR" unicode="&#xd;" horiz-adv-x="530" 
 />
    <glyph glyph-name="space" unicode=" " horiz-adv-x="530" 
 />
    <glyph glyph-name="exclam" unicode="!" horiz-adv-x="630" 
d="M227 1761h176l-20 -1333h-135zM315 217q53 0 89 -36.5t36 -88.5t-36 -88.5t-89 -36.5t-89 36.5t-36 88.5t36 88.5t89 36.5z" />
    <glyph glyph-name="quotedbl" unicode="&#x22;" horiz-adv-x="653" 
d="M100 1702h185l-33 -473h-117zM369 1702h184l-33 -473h-119z" />
    <glyph glyph-name="numbersign" unicode="#" horiz-adv-x="1425" 
d="M141 1081h277l57 435h123l-59 -435h403l57 435h123l-59 -435h194v-123h-208l-56 -401h264v-123h-278l-57 -434h-123l57 434h-401l-58 -434h-123l58 434h-191v123h207l55 401h-262v123zM524 958l-55 -401h403l54 401h-402z" />
    <glyph glyph-name="dollar" unicode="$" horiz-adv-x="1335" 
d="M221 1253q0 190 125 318.5t305 146.5v254h117v-256q241 -27 369 -229l-144 -90q-26 46 -58 77t-89 52.5t-133 21.5q-147 0 -234.5 -86t-87.5 -202q0 -53 23.5 -97.5t68.5 -79t97 -60t122 -50.5q79 -28 141 -55.5t125.5 -62.5t109 -75t82 -88t55 -107.5t18.5 -127.5
q0 -215 -127.5 -340t-337.5 -146v-254h-117v250q-73 2 -134 12t-105.5 23.5t-84.5 39t-65 46.5t-53 58t-43 61.5t-41 68.5l168 105q19 -37 36 -63.5t50 -62.5t70.5 -58.5t96 -39t128.5 -16.5q72 0 137.5 18t120.5 53.5t88 96.5t33 140q0 66 -31.5 120.5t-96 100.5t-142 82
t-189.5 77q-373 136 -373 424z" />
    <glyph glyph-name="percent" unicode="%" horiz-adv-x="2048" 
d="M471 0l983 1690h125l-983 -1690h-125zM90 1315q0 178 120.5 290.5t305.5 112.5t305.5 -112.5t120.5 -290.5q0 -177 -122 -290.5t-304 -113.5t-304 113.5t-122 290.5zM219 1315q0 -129 85 -213t212 -84t212 84t85 213q0 131 -84 214t-213 83t-213 -83t-84 -214zM1104 371
q0 178 120.5 290.5t305.5 112.5t305.5 -112.5t120.5 -290.5q0 -177 -122 -290.5t-304 -113.5t-304 113.5t-122 290.5zM1233 371q0 -129 85 -213t212 -84t212 84t85 213q0 131 -84 214t-213 83t-213 -83t-84 -214z" />
    <glyph glyph-name="ampersand" unicode="&#x26;" horiz-adv-x="1585" 
d="M115 428q0 308 405 514q-53 55 -85 92t-67.5 89t-52 105.5t-16.5 110.5q0 78 28 146.5t81 121t135 83t184 30.5q98 0 178.5 -33.5t130 -88.5t76.5 -122t27 -137q0 -252 -353 -421l420 -455q62 54 119 124t90 130l121 -105q-23 -47 -83.5 -127.5t-125.5 -146.5l311 -338
h-233l-213 233q-59 -58 -112.5 -100t-123.5 -82.5t-151.5 -62t-171.5 -21.5q-81 0 -156 18t-141 55.5t-115 91.5t-77.5 130t-28.5 166zM485 1339q0 -35 12 -71t24.5 -60.5t42 -59.5t41 -47.5t46.5 -45.5l35 -33q74 37 121.5 66t88.5 67t60 83t19 101q0 99 -64.5 170.5
t-183.5 71.5q-113 0 -177.5 -72t-64.5 -170zM319 440q0 -134 94 -215.5t236 -81.5q128 0 238 65t184 150l-448 478q-151 -72 -227.5 -177t-76.5 -219z" />
    <glyph glyph-name="quotesingle" unicode="'" horiz-adv-x="385" 
d="M100 1702h185l-33 -473h-117z" />
    <glyph glyph-name="parenleft" unicode="(" horiz-adv-x="704" 
d="M330 629q0 -138 17.5 -274.5t45.5 -243.5t62.5 -204t68.5 -166.5t62 -121t46 -77.5l17 -25l-117 -49q-8 9 -21.5 26.5t-52 78t-74 127t-78.5 171.5t-74 214.5t-52.5 253.5t-21.5 290t20.5 289.5t53.5 255.5t73 213.5t80 173.5t73 125.5t54 79.5l20 26l117 -49
q-13 -18 -34.5 -51.5t-76.5 -145t-97 -233t-76.5 -308t-34.5 -376.5z" />
    <glyph glyph-name="parenright" unicode=")" horiz-adv-x="704" 
d="M375 629q0 138 -17.5 274.5t-46 243.5t-62.5 204.5t-68 167t-62.5 121.5t-46.5 78l-17 25l117 49q8 -9 21.5 -27t52.5 -78t74.5 -127t78.5 -172t74 -215t52.5 -254t21.5 -290t-20.5 -289.5t-54 -255t-73.5 -213t-79.5 -173t-73 -125t-54.5 -79.5l-20 -26l-117 49
q7 9 18.5 26t44.5 75.5t63.5 123t67 165.5t63.5 205.5t45 241.5t18 275z" />
    <glyph glyph-name="asterisk" unicode="*" horiz-adv-x="638" 
d="M276 1761h89v-192l184 57l26 -80l-186 -63l111 -160l-66 -47l-115 154l-114 -154l-66 47l111 160l-187 63l27 80l186 -57v192z" />
    <glyph glyph-name="plus" unicode="+" horiz-adv-x="1286" 
d="M565 1372h156v-446h446v-156h-446v-446h-156v446h-446v156h446v446z" />
    <glyph glyph-name="comma" unicode="," horiz-adv-x="483" 
d="M242 217q53 0 89 -36.5t36 -90.5q0 -197 -185 -358l-49 41q1 2 12.5 18.5t20 32t20 39t20 52t11.5 58.5q-42 8 -71 41t-29 76q0 54 36 90.5t89 36.5z" />
    <glyph glyph-name="hyphen" unicode="-" horiz-adv-x="933" 
d="M137 670h660v-154h-660v154z" />
    <glyph glyph-name="period" unicode="." horiz-adv-x="483" 
d="M242 217q52 0 88.5 -36.5t36.5 -88.5t-36.5 -88.5t-88.5 -36.5t-88.5 36.5t-36.5 88.5t36.5 88.5t88.5 36.5z" />
    <glyph glyph-name="slash" unicode="/" horiz-adv-x="1034" 
d="M20 -246l844 2007h150l-844 -2007h-150z" />
    <glyph glyph-name="zero" unicode="0" horiz-adv-x="1642" 
d="M322 844q0 -171 38.5 -307t106.5 -223t158 -133t196 -46t196 46t158.5 133t107 223t38.5 307t-38.5 307t-107 223t-158.5 132.5t-196 45.5t-196 -45.5t-158 -132.5t-106.5 -223t-38.5 -307zM133 844q0 172 37 316.5t101 246.5t151.5 173.5t188 105.5t210.5 34t210.5 -34
t188 -105.5t151.5 -173.5t101 -246.5t37 -316.5t-37 -316.5t-101 -247t-151.5 -174t-188 -105.5t-210.5 -34t-210.5 34t-188 105.5t-151.5 174t-101 247t-37 316.5z" />
    <glyph glyph-name="one" unicode="1" horiz-adv-x="569" 
d="M12 1690h367v-1690h-189v1503h-178v187z" />
    <glyph glyph-name="two" unicode="2" horiz-adv-x="1525" 
d="M178 1198q0 55 24.5 123t74 138.5t116.5 128.5t161 95t198 37q119 0 218.5 -33.5t166.5 -88.5t113.5 -128.5t67.5 -152.5t21 -160q0 -71 -25.5 -146t-57 -135.5t-101.5 -140.5t-115 -127.5t-144 -132t-142 -119.5t-153 -122q-56 -44 -83 -66h852v-168h-1214v90
q33 26 125.5 97.5t153.5 119.5t158.5 129t164 144t143.5 145t124 150.5t78.5 143t31.5 138.5q0 70 -25.5 139t-72 126.5t-121 93.5t-164.5 36q-82 0 -160.5 -42.5t-131 -106t-84.5 -135t-32 -131.5z" />
    <glyph glyph-name="three" unicode="3" horiz-adv-x="1314" 
d="M176 1311q4 52 22.5 106.5t58 109.5t93.5 97t135 69t177 27q204 0 343.5 -132.5t139.5 -325.5q0 -128 -68.5 -232t-177.5 -151q127 -44 203 -158.5t76 -261.5q0 -214 -145 -353t-392 -139q-113 0 -205 27t-151.5 69.5t-103 101t-65 116t-30.5 120.5l178 70
q10 -71 34.5 -128t67.5 -104.5t112.5 -73.5t160.5 -26q162 0 254 89t92 231q0 147 -102 247.5t-242 100.5q-16 0 -31 -2t-22 -4l-8 -2v137h59q135 0 232.5 94t97.5 232q0 125 -92 213t-220 88q-142 0 -226.5 -88.5t-98.5 -221.5z" />
    <glyph glyph-name="four" unicode="4" horiz-adv-x="1208" 
d="M-14 526v78l796 1086h189v-998h196v-166h-196v-526h-180v526h-805zM236 692h555v742z" />
    <glyph glyph-name="five" unicode="5" horiz-adv-x="1392" 
d="M315 1690h863v-166h-707l-72 -465q88 59 271 59q101 0 191 -22t168.5 -69t135 -116t89 -168.5t32.5 -220.5q0 -247 -165 -401t-447 -154q-120 0 -223.5 32.5t-174 87t-118 117t-72.5 130.5l152 74q18 -53 54 -101.5t89 -89.5t129 -65.5t164 -24.5q200 0 313 110t113 291
q0 142 -71 245.5t-184 152.5t-251 49q-238 0 -418 -172z" />
    <glyph glyph-name="six" unicode="6" horiz-adv-x="1423" 
d="M106 539q0 149 50 267t145 238l539 646h233l-520 -617q88 51 201 51q108 0 209 -41.5t180 -115.5t126.5 -185.5t47.5 -242.5q0 -173 -83 -305t-218.5 -199.5t-298.5 -67.5q-129 0 -242.5 44t-194.5 119.5t-127.5 182t-46.5 226.5zM299 539q0 -179 115.5 -295.5
t296.5 -116.5q182 0 300.5 117t118.5 295q0 182 -120.5 302t-298.5 120q-170 0 -291 -123.5t-121 -298.5z" />
    <glyph glyph-name="seven" unicode="7" horiz-adv-x="1208" 
d="M135 1690h1094v-62l-893 -1628h-221l837 1524h-817v166z" />
    <glyph glyph-name="eight" unicode="8" horiz-adv-x="1327" 
d="M360 1272q0 -132 87 -217.5t217 -85.5t216.5 85.5t86.5 217.5t-87.5 219.5t-215.5 87.5q-129 0 -216.5 -87.5t-87.5 -219.5zM313 471q0 -149 99 -244.5t252 -95.5t251.5 95.5t98.5 244.5t-101 245.5t-249 96.5t-249.5 -96.5t-101.5 -245.5zM199 1292q0 180 136 304
t329 124t328.5 -124t135.5 -304q0 -138 -60 -238.5t-169 -152.5q138 -55 216.5 -171.5t78.5 -280.5q0 -209 -151.5 -345.5t-378.5 -136.5t-379 136.5t-152 345.5q0 164 78.5 280.5t216.5 171.5q-109 52 -169 152.5t-60 238.5z" />
    <glyph glyph-name="nine" unicode="9" horiz-adv-x="1423" 
d="M106 1149q0 130 48.5 239t130.5 181t191 111.5t231 39.5q172 0 312 -74.5t219 -205t79 -291.5q0 -149 -50 -267.5t-145 -238.5l-538 -643h-234l520 614q-88 -51 -200 -51q-86 0 -168.5 26t-154 77t-125.5 121t-85 163.5t-31 198.5zM293 1149q0 -182 121 -302t299 -120
q170 0 290.5 123.5t120.5 298.5q0 179 -115 295.5t-296 116.5q-182 0 -301 -117t-119 -295z" />
    <glyph glyph-name="colon" unicode=":" horiz-adv-x="483" 
d="M242 217q52 0 88.5 -36.5t36.5 -88.5t-36.5 -88.5t-88.5 -36.5t-88.5 36.5t-36.5 88.5t36.5 88.5t88.5 36.5zM242 1137q52 0 88.5 -36.5t36.5 -88.5t-36.5 -88.5t-88.5 -36.5t-88.5 36.5t-36.5 88.5t36.5 88.5t88.5 36.5z" />
    <glyph glyph-name="semicolon" unicode=";" horiz-adv-x="483" 
d="M242 217q53 0 89 -36.5t36 -90.5q0 -197 -185 -358l-49 41q1 2 12.5 18.5t20 32t20 39t20 52t11.5 58.5q-42 8 -71 41t-29 76q0 54 36 90.5t89 36.5zM242 1137q52 0 88.5 -36.5t36.5 -88.5t-36.5 -88.5t-88.5 -36.5t-88.5 36.5t-36.5 88.5t36.5 88.5t88.5 36.5z" />
    <glyph glyph-name="less" unicode="&#x3c;" horiz-adv-x="1280" 
d="M55 911l1121 516v-149l-928 -426l928 -426v-150l-1121 517v118z" />
    <glyph glyph-name="equal" unicode="=" horiz-adv-x="1265" 
d="M109 1137h1048v-156h-1048v156zM109 717h1048v-156h-1048v156z" />
    <glyph glyph-name="greater" unicode="&#x3e;" horiz-adv-x="1280" 
d="M1225 911v-118l-1121 -517v150l928 426l-928 426v149z" />
    <glyph glyph-name="question" unicode="?" horiz-adv-x="1193" 
d="M63 1245q5 99 42 185t101.5 151t162 102t215.5 37q123 0 225.5 -44t166.5 -116.5t99 -161t35 -181.5q0 -89 -30 -173t-87 -155.5t-150.5 -119.5t-209.5 -58v-262h-168v423q36 -10 102 -10q91 0 163 29t116.5 79t68 113t23.5 134q0 146 -94.5 242.5t-259.5 96.5
q-169 0 -264 -92t-103 -245zM549 217q53 0 89 -36.5t36 -88.5t-36 -88.5t-89 -36.5t-89 36.5t-36 88.5t36 88.5t89 36.5z" />
    <glyph glyph-name="at" unicode="@" horiz-adv-x="1957" 
d="M111 844q0 149 45 285t126.5 242.5t190.5 185.5t242 121t276 42q175 0 333 -64.5t273.5 -176.5t183.5 -271t68 -340q0 -201 -79.5 -316.5t-213.5 -115.5q-84 0 -144 36.5t-95 88.5q-59 -109 -161 -172t-232 -63q-202 0 -335.5 141.5t-133.5 357.5t134 359t335 143
q126 0 226.5 -58t158.5 -161v190h133v-579q0 -66 33 -110t100 -44q72 0 106.5 67.5t34.5 235.5q0 199 -96.5 362.5t-263 256t-367.5 92.5q-147 0 -280.5 -57.5t-230.5 -155t-154.5 -234t-57.5 -288.5t55 -286.5t150.5 -231t230 -153t287.5 -56.5q188 0 327.5 75t211.5 181
l127 -78q-29 -43 -69.5 -85.5t-102 -87.5t-132 -78.5t-165 -55t-195.5 -21.5q-186 0 -349 66.5t-279.5 182.5t-184 279t-67.5 349zM614 827q0 -161 99 -264.5t252 -103.5q151 0 249.5 103.5t98.5 264.5q0 162 -99 266.5t-249 104.5q-152 0 -251.5 -104.5t-99.5 -266.5z" />
    <glyph glyph-name="A" unicode="A" horiz-adv-x="1466" 
d="M647 1690h172l668 -1690h-203l-192 510h-717l-193 -510h-202zM440 676h586l-293 764z" />
    <glyph glyph-name="B" unicode="B" horiz-adv-x="1333" 
d="M193 1690h380q243 0 382 -107.5t139 -320.5q0 -134 -61 -231t-179 -148q186 -25 287.5 -133.5t101.5 -296.5q0 -209 -140.5 -331t-391.5 -122h-518v1690zM381 1542v-598h149q186 0 284.5 75.5t98.5 225.5q0 145 -99 220t-284 77h-149zM381 778v-626h274q189 0 291.5 78.5
t102.5 228.5q0 156 -102.5 237.5t-291.5 81.5h-274z" />
    <glyph glyph-name="C" unicode="C" horiz-adv-x="1632" 
d="M111 844q0 180 69.5 342.5t187.5 279.5t283.5 185.5t349.5 68.5t324 -52t225 -120l-86 -157q-72 58 -187.5 100.5t-250.5 42.5q-161 0 -296.5 -56t-225.5 -151.5t-139.5 -220t-49.5 -262.5t49.5 -262.5t139.5 -220t225.5 -151.5t296.5 -56q135 0 250.5 42.5t187.5 100.5
l86 -158q-85 -68 -225 -120t-324 -52t-349.5 69t-283.5 186t-187.5 279.5t-69.5 342.5z" />
    <glyph glyph-name="D" unicode="D" horiz-adv-x="1550" 
d="M193 1690h395q172 0 328 -63.5t271.5 -173.5t184 -268.5t68.5 -338.5q0 -181 -68 -340t-183.5 -269t-271.5 -173.5t-329 -63.5h-395v1690zM381 1522v-1354h188q185 0 338 87t243 243t91 348q0 191 -90 346.5t-243.5 242.5t-338.5 87h-188z" />
    <glyph glyph-name="E" unicode="E" horiz-adv-x="1183" 
d="M193 1690h868v-166h-680v-594h655v-166h-655v-598h680v-166h-868v1690z" />
    <glyph glyph-name="F" unicode="F" horiz-adv-x="1183" 
d="M193 1690h872v-166h-684v-594h637v-166h-637v-764h-188v1690z" />
    <glyph glyph-name="G" unicode="G" horiz-adv-x="1816" 
d="M111 842q0 180 62.5 342t170.5 280t261.5 187t328.5 69q413 0 651 -288l-123 -136q-190 254 -520 254q-176 0 -321 -94.5t-227.5 -257t-82.5 -356.5q0 -190 84.5 -352t230 -256.5t316.5 -94.5q111 0 215 36.5t185.5 101.5t130.5 163.5t49 212.5v49h-588v152h780v-164
q0 -158 -60.5 -293.5t-164.5 -229t-248 -147t-307 -53.5q-168 0 -320 69.5t-262.5 186.5t-175.5 279t-65 340z" />
    <glyph glyph-name="H" unicode="H" horiz-adv-x="1630" 
d="M193 1690h188v-760h868v760h189v-1690h-189v764h-868v-764h-188v1690z" />
    <glyph glyph-name="I" unicode="I" horiz-adv-x="573" 
d="M193 1690h188v-1690h-188v1690z" />
    <glyph glyph-name="J" unicode="J" horiz-adv-x="1046" 
d="M686 1690h188v-1215q0 -248 -135.5 -378t-390.5 -130q-68 0 -133.5 16.5t-110.5 40.5t-81 48t-53 40l-17 17l63 168q6 -6 16.5 -16t44.5 -36t68.5 -46t84.5 -36t96 -16q175 0 267.5 95t92.5 288v1160z" />
    <glyph glyph-name="K" unicode="K" horiz-adv-x="1413" 
d="M193 1690h188v-789l739 789h228l-758 -811l844 -879h-260l-713 741l-80 -86v-655h-188v1690z" />
    <glyph glyph-name="L" unicode="L" horiz-adv-x="1136" 
d="M193 1690h188v-1524h688v-166h-876v1690z" />
    <glyph glyph-name="M" unicode="M" horiz-adv-x="1941" 
d="M291 1690h201l479 -1272l479 1272h201l209 -1690h-189l-172 1343l-463 -1257h-131l-463 1257l-172 -1343h-188z" />
    <glyph glyph-name="N" unicode="N" horiz-adv-x="1638" 
d="M193 1690h188l876 -1371v1371h189v-1690h-189l-876 1370v-1370h-188v1690z" />
    <glyph glyph-name="O" unicode="O" horiz-adv-x="1925" 
d="M313 844q0 -188 82.5 -346.5t232.5 -253t335 -94.5t335 94.5t232 253t82 346.5t-82 346.5t-232 253t-335 94.5t-335 -94.5t-232.5 -253t-82.5 -346.5zM111 844q0 240 111 440.5t307 318t434 117.5t434 -117.5t307 -318t111 -440.5q0 -179 -65.5 -341t-178 -280
t-271.5 -187t-337 -69t-337 69t-271.5 187t-178 280t-65.5 341z" />
    <glyph glyph-name="P" unicode="P" horiz-adv-x="1310" 
d="M193 1690h462q251 0 398 -128.5t147 -355.5q0 -228 -148.5 -366t-396.5 -138h-274v-702h-188v1690zM381 1538v-680h225q182 0 291 92t109 252t-108.5 248t-291.5 88h-225z" />
    <glyph glyph-name="Q" unicode="Q" horiz-adv-x="1929" 
d="M113 844q0 182 68 345.5t183 279t272 183.5t329 68t329 -68t272 -183.5t183 -279t68 -345.5q0 -177 -58.5 -332t-165.5 -274q164 -90 281 -123l-82 -168q-153 49 -334 172q-214 -149 -493 -152q-184 1 -343.5 69t-270.5 185t-174.5 278.5t-63.5 344.5zM315 844
q0 -142 45 -268t127 -221t206 -150t272 -55q190 0 335 88q-141 113 -301 278l82 100q109 -127 344 -280q91 95 140 227t49 281q0 141 -49 268.5t-133.5 221t-206.5 149t-260 55.5q-184 0 -334 -94t-233 -253t-83 -347z" />
    <glyph glyph-name="R" unicode="R" horiz-adv-x="1320" 
d="M193 1690h462q251 0 398 -128.5t147 -355.5q0 -201 -118 -332.5t-322 -156.5l561 -717h-240l-534 702h-166v-702h-188v1690zM381 1538v-680h225q182 0 291 92t109 252t-108.5 248t-291.5 88h-225z" />
    <glyph glyph-name="S" unicode="S" horiz-adv-x="1337" 
d="M221 1253q0 135 67 243.5t176 166t236 57.5q290 0 437 -233l-144 -90q-26 46 -58 77t-89 52.5t-133 21.5q-147 0 -234.5 -86t-87.5 -202q0 -53 23.5 -97.5t68.5 -79t97 -60t122 -50.5q79 -28 141 -55.5t125.5 -62.5t109 -75t82 -88t55 -107.5t18.5 -127.5
q0 -158 -73 -270.5t-194.5 -166t-279.5 -53.5q-199 0 -342 82t-219 227l156 97q54 -104 162.5 -168t230.5 -64q72 0 137.5 18t120.5 53.5t88 96.5t33 140q0 66 -31.5 120.5t-96 100.5t-142 82t-189.5 77q-373 136 -373 424z" />
    <glyph glyph-name="T" unicode="T" horiz-adv-x="1200" 
d="M6 1690h1188v-166h-498v-1524h-188v1524h-502v166z" />
    <glyph glyph-name="U" unicode="U" horiz-adv-x="1536" 
d="M1176 1690h188v-1086q0 -314 -152.5 -475.5t-443.5 -161.5t-443.5 161.5t-152.5 475.5v1086h188v-1041q0 -254 101 -374.5t307 -120.5t307 120.5t101 374.5v1041z" />
    <glyph glyph-name="V" unicode="V" horiz-adv-x="1523" 
d="M-20 1690h213l569 -1407l569 1407h213l-708 -1690h-148z" />
    <glyph glyph-name="W" unicode="W" horiz-adv-x="2265" 
d="M-20 1690h206l404 -1440l471 1440h143l471 -1440l404 1440h207l-498 -1690h-211l-444 1321l-445 -1321h-211z" />
    <glyph glyph-name="X" unicode="X" horiz-adv-x="1482" 
d="M82 1690h225l434 -619l435 619h225l-543 -779l645 -911h-235l-527 748l-526 -748h-235l645 911z" />
    <glyph glyph-name="Y" unicode="Y" horiz-adv-x="1318" 
d="M-20 1690h227l452 -756l453 756h227l-585 -955v-735h-189v735z" />
    <glyph glyph-name="Z" unicode="Z" horiz-adv-x="1552" 
d="M190 1690h1289l-1067 -1520h1009v-170h-1347l1067 1520h-951v170z" />
    <glyph glyph-name="bracketleft" unicode="[" horiz-adv-x="681" 
d="M193 1761h462v-131h-303v-2031h303v-131h-462v2293z" />
    <glyph glyph-name="backslash" unicode="\" horiz-adv-x="1032" 
d="M18 1761h150l844 -1761h-150z" />
    <glyph glyph-name="bracketright" unicode="]" horiz-adv-x="681" 
d="M27 1761h462v-2293h-462v131h303v2031h-303v131z" />
    <glyph glyph-name="asciicircum" unicode="^" horiz-adv-x="931" 
d="M514 1720l424 -481h-162l-309 356l-309 -356h-162l424 481h94z" />
    <glyph glyph-name="underscore" unicode="_" horiz-adv-x="1050" 
d="M0 -111h1051v-94h-1051v94z" />
    <glyph glyph-name="grave" unicode="`" horiz-adv-x="624" 
d="M111 1587l100 133l305 -247l-63 -91z" />
    <glyph glyph-name="a" unicode="a" 
d="M111 524q0 157 68 284.5t188 200t268 72.5q136 0 246 -62t174 -171v201h180v-1049h-180v207q-64 -111 -174.5 -175.5t-245.5 -64.5q-148 0 -268 72.5t-188 200t-68 284.5zM299 524q0 -175 107.5 -288t273.5 -113t273.5 113t107.5 288q0 176 -108 289t-273 113
q-164 0 -272.5 -113t-108.5 -289z" />
    <glyph glyph-name="b" unicode="b" 
d="M184 0v1761h181v-913q64 109 173.5 171t245.5 62q148 0 268.5 -72.5t188.5 -200t68 -284.5t-68 -284.5t-188.5 -200t-268.5 -72.5q-135 0 -245 64.5t-174 175.5v-207h-181zM1120 524q0 176 -108.5 289t-272.5 113q-165 0 -273 -113t-108 -289q0 -175 107.5 -288
t273.5 -113t273.5 113t107.5 288z" />
    <glyph glyph-name="c" unicode="c" horiz-adv-x="1132" 
d="M104 524q0 156 77 284.5t207 200.5t284 72q246 0 358 -112l-84 -133q-30 33 -98 53t-156 20q-174 0 -288.5 -106.5t-114.5 -278.5t114.5 -278.5t288.5 -106.5q88 0 156 20.5t96 53.5l86 -135q-57 -54 -141 -82.5t-217 -28.5q-154 0 -284 72.5t-207 201t-77 283.5z" />
    <glyph glyph-name="d" unicode="d" 
d="M111 524q0 157 68 284.5t188 200t268 72.5q136 0 246 -62t174 -171v913h180v-1761h-180v207q-64 -111 -174.5 -175.5t-245.5 -64.5q-148 0 -268 72.5t-188 200t-68 284.5zM299 524q0 -175 107.5 -288t273.5 -113t273.5 113t107.5 288q0 176 -108 289t-273 113
q-164 0 -272.5 -113t-108.5 -289z" />
    <glyph glyph-name="e" unicode="e" horiz-adv-x="1310" 
d="M104 524q0 114 44 217t118 177.5t176.5 118.5t214.5 44q114 0 215 -41t174.5 -113t116.5 -176.5t43 -226.5v-20h-919q0 -116 54.5 -206t143.5 -136.5t195 -46.5q231 0 360 182l134 -70q-78 -129 -208.5 -194.5t-295.5 -65.5q-156 0 -285.5 72.5t-205 200.5t-75.5 284z
M291 616h739q-15 145 -118 231.5t-250 86.5q-151 0 -254.5 -88t-116.5 -230z" />
    <glyph glyph-name="f" unicode="f" horiz-adv-x="647" 
d="M98 1049h111v354q0 190 82.5 289.5t226.5 99.5q123 0 211 -66l-63 -129q-15 13 -48 25t-73 12q-81 0 -118.5 -54t-37.5 -175v-356h264v-138h-264v-911h-180v911h-111v138z" />
    <glyph glyph-name="g" unicode="g" 
d="M111 524q0 157 68 284.5t188 200t268 72.5q136 0 246 -62t174 -171v201h180v-1078q0 -255 -151.5 -394.5t-421.5 -139.5q-197 0 -338 77t-207 228l149 70q44 -96 148 -159t248 -63q174 0 283.5 104t109.5 277v236q-64 -111 -174.5 -175.5t-245.5 -64.5q-148 0 -268 72.5
t-188 200t-68 284.5zM299 524q0 -175 107.5 -288t273.5 -113t273.5 113t107.5 288q0 176 -108 289t-273 113q-164 0 -272.5 -113t-108.5 -289z" />
    <glyph glyph-name="h" unicode="h" horiz-adv-x="1282" 
d="M184 1761h181v-850q49 81 140 125.5t183 44.5q195 0 310.5 -108t115.5 -303v-670h-180v621q0 147 -71.5 232t-209.5 85q-124 0 -206 -82.5t-82 -185.5v-670h-181v1761z" />
    <glyph glyph-name="i" unicode="i" horiz-adv-x="548" 
d="M184 1049h181v-1049h-181v1049zM274 1501q52 0 88.5 -36.5t36.5 -88.5t-36.5 -88.5t-88.5 -36.5t-88 36t-36 89t36 89t88 36z" />
    <glyph glyph-name="j" unicode="j" horiz-adv-x="548" 
d="M184 1049h181v-1270q0 -161 -74.5 -251.5t-220.5 -90.5q-54 0 -98 9.5t-65 19.5t-46 26l55 143q14 -14 46.5 -26t70.5 -12q151 0 151 204v1248zM274 1501q52 0 88.5 -36.5t36.5 -88.5t-36.5 -88.5t-88.5 -36.5t-88 36t-36 89t36 89t88 36z" />
    <glyph glyph-name="k" unicode="k" horiz-adv-x="1048" 
d="M184 1761h181v-1120l362 408h231l-385 -424l519 -625h-228l-405 498l-94 -103v-395h-181v1761z" />
    <glyph glyph-name="l" unicode="l" horiz-adv-x="548" 
d="M184 1761h181v-1761h-181v1761z" />
    <glyph glyph-name="m" unicode="m" horiz-adv-x="1992" 
d="M184 1049h181v-138q55 80 144.5 125t180.5 45q137 0 232 -55.5t139 -161.5q62 98 156.5 157.5t201.5 59.5q193 0 299.5 -107t106.5 -304v-670h-180v621q0 144 -71.5 228.5t-209.5 84.5q-112 0 -191 -78.5t-79 -153.5v-702h-179v621q0 144 -71 228.5t-209 84.5
q-78 0 -142.5 -41t-96 -95t-31.5 -102v-696h-181v1049z" />
    <glyph glyph-name="n" unicode="n" horiz-adv-x="1282" 
d="M184 1049h181v-138q49 81 140 125.5t183 44.5q195 0 310.5 -108t115.5 -303v-670h-180v621q0 147 -71.5 232t-209.5 85q-124 0 -206 -82.5t-82 -185.5v-670h-181v1049z" />
    <glyph glyph-name="o" unicode="o" horiz-adv-x="1382" 
d="M289 524q0 -175 113 -288t288 -113t288.5 113t113.5 288t-113.5 288.5t-288.5 113.5t-288 -113.5t-113 -288.5zM104 524q0 163 77 290.5t210.5 197t298.5 69.5t298.5 -69.5t210.5 -197t77 -290.5t-77 -290.5t-210.5 -197t-298.5 -69.5t-298.5 69.5t-210.5 197t-77 290.5z
" />
    <glyph glyph-name="p" unicode="p" 
d="M184 1049h181v-201q64 109 173.5 171t245.5 62q148 0 268.5 -72.5t188.5 -200t68 -284.5t-68 -284.5t-188.5 -200t-268.5 -72.5q-135 0 -245 64.5t-174 175.5v-739h-181v1581zM358 524q0 -175 107.5 -288t273.5 -113t273.5 113t107.5 288q0 176 -108.5 289t-272.5 113
q-165 0 -273 -113t-108 -289z" />
    <glyph glyph-name="q" unicode="q" 
d="M111 524q0 157 68 284.5t188 200t268 72.5q136 0 246 -62t174 -171v201h180v-1581h-180v739q-64 -111 -174.5 -175.5t-245.5 -64.5q-148 0 -268 72.5t-188 200t-68 284.5zM299 524q0 -175 107.5 -288t273.5 -113t273.5 113t107.5 288q0 176 -108 289t-273 113
q-164 0 -272.5 -113t-108.5 -289z" />
    <glyph glyph-name="r" unicode="r" horiz-adv-x="856" 
d="M184 1049h181v-154q35 72 118.5 129t190.5 57q26 0 51 -3t48.5 -9t36.5 -10t33 -11.5t21 -7.5l-76 -151q-3 1 -17 6.5t-26 9.5t-30.5 9t-40.5 7.5t-45 2.5q-68 0 -122 -29t-83 -71.5t-44 -82t-15 -69.5v-672h-181v1049z" />
    <glyph glyph-name="s" unicode="s" horiz-adv-x="980" 
d="M518 1081q120 0 196.5 -48.5t106.5 -117.5l-112 -71q-22 44 -72 74t-119 30q-98 0 -155.5 -40.5t-57.5 -104.5q0 -59 59 -99t177 -75q342 -104 342 -338q0 -74 -24.5 -131.5t-64 -93t-94 -58.5t-109 -32t-114.5 -9q-290 0 -383 228l123 77q31 -76 102 -122t158 -46
q44 0 84.5 9t77 29t58.5 57.5t22 87.5q0 41 -24 76.5t-69.5 63.5t-96 48.5t-117.5 40.5q-48 14 -90 36t-81 54.5t-62 81t-23 107.5q0 127 97.5 206.5t264.5 79.5z" />
    <glyph glyph-name="t" unicode="t" horiz-adv-x="686" 
d="M98 1049h113v391h180v-391h256v-138h-256v-600q0 -93 28.5 -138.5t94.5 -45.5q27 0 53 8.5t39 17.5l12 9l46 -146q-8 -5 -23.5 -13.5t-65.5 -22t-102 -13.5q-262 0 -262 318v626h-113v138z" />
    <glyph glyph-name="u" unicode="u" horiz-adv-x="1257" 
d="M168 1049h180v-576q0 -105 18 -175.5t55.5 -109.5t87 -55t120.5 -16q57 0 99 9.5t77 33.5t57.5 64.5t34.5 102t12 146.5v576h181v-611q0 -254 -111.5 -362.5t-349.5 -108.5t-349.5 108.5t-111.5 362.5v611z" />
    <glyph glyph-name="v" unicode="v" horiz-adv-x="1132" 
d="M-10 1049h211l366 -797l367 797h211l-516 -1049h-123z" />
    <glyph glyph-name="w" unicode="w" horiz-adv-x="1884" 
d="M-10 1049h205l366 -797l320 797h123l319 -797l367 797h204l-516 -1049h-121l-315 776l-315 -776h-121z" />
    <glyph glyph-name="x" unicode="x" horiz-adv-x="1134" 
d="M70 1049h209l288 -381l289 381h209l-385 -506l444 -543h-215l-342 424l-342 -424h-215l445 543z" />
    <glyph glyph-name="y" unicode="y" horiz-adv-x="1146" 
d="M-10 1049h207l397 -822l356 822h207l-737 -1581h-203l272 577z" />
    <glyph glyph-name="z" unicode="z" horiz-adv-x="1153" 
d="M127 1049h979l-739 -904h714v-145h-1034l739 903h-659v146z" />
    <glyph glyph-name="braceleft" unicode="{" horiz-adv-x="684" 
d="M152 668q98 0 98 106v617q0 70 14.5 130.5t49 117t101 89.5t160.5 33h97v-139h-51q-103 0 -157 -63.5t-54 -180.5v-628q0 -96 -68 -136q68 -40 68 -135v-629q0 -117 54 -180t157 -63h51v-139h-97q-94 0 -160.5 33t-101 89.5t-49 117t-14.5 130.5v617q0 106 -98 106v107z
" />
    <glyph glyph-name="bar" unicode="|" horiz-adv-x="542" 
d="M193 1761h159v-1761h-159v1761z" />
    <glyph glyph-name="braceright" unicode="}" horiz-adv-x="684" 
d="M12 1761h99q94 0 160.5 -33t101 -89.5t49 -117t14.5 -130.5v-617q0 -106 99 -106v-107q-99 0 -99 -106v-617q0 -70 -14.5 -130.5t-49 -117t-101 -89.5t-160.5 -33h-99v139h51q105 0 159 63t54 180v629q0 97 68 135q-68 38 -68 136v628q0 117 -54 180.5t-159 63.5h-51v139
z" />
    <glyph glyph-name="asciitilde" unicode="~" horiz-adv-x="1343" 
d="M141 797q14 23 30 45t47.5 56t64 58t79.5 42t95 18q127 0 256 -98q92 -72 174 -72q124 0 215 160l100 -88q-14 -24 -30 -45.5t-47 -55.5t-64 -58.5t-79.5 -42.5t-94.5 -18q-126 0 -256 99q-91 71 -174 71q-125 0 -215 -159z" />
    <glyph glyph-name="exclamdown" unicode="&#xa1;" horiz-adv-x="630" 
d="M403 -532h-176l21 1333h135zM315 1012q-53 0 -89 36t-36 89t36 89t89 36t89 -36t36 -89t-36 -89t-89 -36z" />
    <glyph glyph-name="cent" unicode="&#xa2;" horiz-adv-x="1132" 
d="M104 524q0 206 127.5 356t323.5 189v234h117v-222q264 0 358 -112l-84 -133q-30 33 -98 53t-156 20q-174 0 -288.5 -106.5t-114.5 -278.5t114.5 -278.5t288.5 -106.5q88 0 156 20.5t96 53.5l86 -135q-88 -98 -305 -109v-233h-117v235q-215 24 -359.5 179t-144.5 374z" />
    <glyph glyph-name="sterling" unicode="&#xa3;" horiz-adv-x="1548" 
d="M135 741h275q-74 106 -111 198.5t-37 227.5q0 154 67 279.5t194 199.5t290 74q114 0 209.5 -32t155 -78.5t104 -106.5t65 -108t29.5 -92l-159 -70q-9 39 -24.5 79t-48.5 88t-75.5 84t-109 60.5t-146.5 24.5q-163 0 -265 -115t-102 -287q0 -61 8 -113.5t26.5 -100
t31 -73.5t41.5 -75.5t37 -63.5h481v-108h-436q33 -86 33 -158q0 -20 -2 -39.5t-6 -39t-7 -33.5t-10 -33.5t-9.5 -26.5t-9.5 -26l-8 -19q44 0 102 -21.5t107.5 -48t120.5 -48t139 -21.5q55 0 101 25t73 63t43 75.5t19 69.5l143 -71q-5 -41 -29 -91t-65.5 -101t-111.5 -85.5
t-154 -34.5q-72 0 -142.5 17t-126.5 41t-109 48t-110.5 41t-111.5 17q-86 0 -138.5 -41.5t-70.5 -91.5h-117q12 89 94.5 176.5t196.5 93.5q43 88 43 199q0 76 -45 164h-332v108z" />
    <glyph glyph-name="yen" unicode="&#xa5;" horiz-adv-x="1357" 
d="M-4 1690h227l453 -756l452 756h228l-539 -877h361v-137h-408v-230h408v-137h-408v-309h-188v309h-410v137h410v230h-410v137h360z" />
    <glyph glyph-name="brokenbar" unicode="&#xa6;" horiz-adv-x="542" 
d="M193 1761h159v-680h-159v680zM193 680h159v-680h-159v680z" />
    <glyph glyph-name="section" unicode="&#xa7;" horiz-adv-x="1310" 
d="M166 645q1 105 62 187.5t153 121.5q-94 63 -138 144.5t-44 191.5q0 185 128 307.5t343 122.5q86 0 159 -25t117.5 -58t82 -80t52 -74t27.5 -58l-160 -41q-11 28 -30.5 55.5t-52 58.5t-83.5 50t-112 19q-131 0 -211 -82.5t-80 -190.5q0 -56 27 -103t80.5 -84.5t113 -65.5
t143.5 -58q235 -84 346 -187t111 -253q-1 -97 -64.5 -181t-154.5 -124q96 -69 142 -155t46 -204q0 -90 -33.5 -169t-97.5 -140.5t-167.5 -97t-233.5 -35.5q-83 0 -157 19.5t-126 48.5t-96 69t-71 76t-47.5 73.5t-28.5 57.5t-11 33l160 41q5 -17 18 -43t44.5 -66.5
t71.5 -73.5t104.5 -57.5t138.5 -24.5q155 0 256.5 76.5t101.5 208.5q0 118 -107 201.5t-323 159.5q-203 73 -301 172t-98 237zM326 670q1 -47 24 -87t67.5 -71.5t94.5 -55.5t119 -48q143 -50 229 -101q71 22 124 80t54 131q-1 99 -98 170.5t-295 138.5q-75 23 -145 60
q-68 -20 -119.5 -79t-54.5 -138z" />
    <glyph glyph-name="dieresis" unicode="&#xa8;" horiz-adv-x="983" 
d="M252 1536q43 0 73.5 -30.5t30.5 -73.5t-30.5 -74t-73.5 -31t-74 31t-31 74t31 73.5t74 30.5zM731 1536q43 0 74 -30.5t31 -73.5t-31 -74t-74 -31t-73.5 31t-30.5 74t30.5 73.5t73.5 30.5z" />
    <glyph glyph-name="copyright" unicode="&#xa9;" horiz-adv-x="1941" 
d="M111 844q0 181 68.5 344t184.5 279t274.5 184.5t332.5 68.5q234 0 432 -115.5t314 -317t116 -443.5q0 -180 -67 -342.5t-181.5 -280t-274.5 -186t-339 -68.5q-181 0 -341.5 68.5t-273.5 186t-179 279.5t-66 343zM240 844q0 -155 56 -293.5t152.5 -238.5t232.5 -159
t290 -59q152 0 287.5 59t233 159t154 239t56.5 293q0 155 -58 294t-156 238.5t-233 158t-284 58.5q-147 0 -282 -58.5t-233.5 -158t-157 -239t-58.5 -293.5zM469 844q0 142 69.5 259t188 182t258.5 65q239 0 326 -101l-76 -123q-27 31 -88.5 49.5t-142.5 18.5
q-159 0 -263 -96.5t-104 -253.5q0 -156 104 -252t263 -96q81 0 142.5 17.5t86.5 47.5l78 -121q-89 -102 -326 -102q-140 0 -258.5 66t-188 182.5t-69.5 257.5z" />
    <glyph glyph-name="ordfeminine" unicode="&#xaa;" horiz-adv-x="962" 
d="M125 1376q0 147 93 245.5t231 98.5q85 0 153 -38t107 -105v123h110v-647h-110v127q-39 -68 -107.5 -108t-152.5 -40q-138 0 -231 98.5t-93 245.5zM242 1376q0 -108 66.5 -178t168.5 -70q103 0 169.5 70.5t66.5 177.5q0 108 -67 178t-169 70q-101 0 -168 -70t-67 -178z
" />
    <glyph glyph-name="guillemotleft" unicode="&#xab;" horiz-adv-x="1126" 
d="M438 1081l105 -82l-336 -430l336 -430l-105 -82l-399 512zM950 1081l105 -82l-336 -430l336 -430l-105 -82l-399 512z" />
    <glyph glyph-name="registered" unicode="&#xae;" horiz-adv-x="1044" 
d="M63 1260q0 190 134.5 325t322.5 135q126 0 232 -61.5t167.5 -167.5t61.5 -231q0 -189 -134.5 -323t-326.5 -134q-92 0 -176.5 36.5t-146 97.5t-98 145.5t-36.5 177.5zM129 1260q0 -161 115 -276.5t276 -115.5q162 0 277.5 115t115.5 277q0 163 -115 279t-278 116
q-161 0 -276 -116t-115 -279zM381 1538h123q82 0 129 -41.5t47 -114.5q0 -65 -40 -108.5t-108 -50.5l185 -238h-66l-178 234h-39v-234h-53v553zM434 1497v-233h58q62 0 98.5 31.5t36.5 86.5q0 54 -36.5 84.5t-98.5 30.5h-58z" />
    <glyph glyph-name="macron" unicode="&#xaf;" horiz-adv-x="1122" 
d="M143 1485h836v-127h-836v127z" />
    <glyph glyph-name="degree" unicode="&#xb0;" horiz-adv-x="630" 
d="M96 1581q0 93 63 152t156 59q94 0 157 -59t63 -152q0 -92 -61.5 -151.5t-158.5 -59.5q-98 0 -158.5 59t-60.5 152zM184 1581q0 -59 36.5 -97t94.5 -38t94.5 38t36.5 97q0 58 -37 95.5t-94 37.5q-56 0 -93.5 -37.5t-37.5 -95.5z" />
    <glyph glyph-name="plusminus" unicode="&#xb1;" horiz-adv-x="1339" 
d="M592 1372h156v-426h446v-155h-446v-426h-156v426h-447v155h447v426zM145 156h1049v-156h-1049v156z" />
    <glyph glyph-name="twosuperior" unicode="&#xb2;" horiz-adv-x="561" 
d="M76 1518q0 27 15.5 61t42.5 66t70.5 53.5t92.5 21.5q111 0 170 -66.5t59 -152.5q0 -21 -6 -43t-13 -40.5t-23.5 -42t-28.5 -39t-36.5 -40t-37.5 -37t-43.5 -38t-42.5 -35.5t-45.5 -36.5t-42.5 -33.5h330v-65h-471v34q13 10 56 43.5t70.5 56t70.5 59t71 66t56 64t42 67
t14 60.5q0 59 -40 106.5t-109 47.5q-62 0 -110 -55.5t-48 -106.5z" />
    <glyph glyph-name="threesuperior" unicode="&#xb3;" horiz-adv-x="505" 
d="M80 1563q2 25 13 51t32.5 50.5t58 40t82.5 15.5q78 0 131.5 -51t53.5 -125q0 -49 -26.5 -88t-68.5 -57q49 -17 78 -60.5t29 -99.5q0 -82 -55.5 -135t-149.5 -53q-102 0 -153 49.5t-60 116.5l68 26q19 -127 143 -127q63 0 98 34t35 89q0 56 -39 94.5t-92 38.5l-25 -4v53
h23q53 0 90 35.5t37 87.5q0 49 -34.5 82t-84.5 33q-54 0 -87 -33.5t-38 -83.5z" />
    <glyph glyph-name="acute" unicode="&#xb4;" horiz-adv-x="770" 
d="M182 1473l305 247l101 -133l-342 -205z" />
    <glyph glyph-name="mu" unicode="&#xb5;" horiz-adv-x="1325" 
d="M211 1049h178v-621q0 -146 72.5 -231.5t210.5 -85.5q124 0 205 82t81 186v670h181v-1049h-181v137q-49 -81 -139.5 -125.5t-183.5 -44.5q-168 0 -246 105v-400h-221q0 156 21.5 387t21.5 385v605z" />
    <glyph glyph-name="paragraph" unicode="&#xb6;" horiz-adv-x="1343" 
d="M111 1206q0 215 141.5 349.5t384.5 134.5h516v-1690h-119v1575h-82v-1575h-118v702h-197q-121 0 -221 39.5t-166 108t-102.5 160t-36.5 196.5z" />
    <glyph glyph-name="periodcentered" unicode="&#xb7;" horiz-adv-x="483" 
d="M242 674q51 0 87 -36t36 -87t-36 -87t-87 -36t-87 36t-36 87t36 87t87 36z" />
    <glyph glyph-name="cedilla" unicode="&#xb8;" horiz-adv-x="841" 
d="M301 -258l100 307l88 -29l-59 -178q20 4 62 4q90 0 157.5 -59t67.5 -154q0 -101 -73.5 -168t-201.5 -67q-98 0 -176 52t-108 106l86 59q24 -42 77.5 -76.5t120.5 -34.5q68 0 113 34t45 95t-42.5 99.5t-104.5 38.5q-83 0 -140 -37z" />
    <glyph glyph-name="onesuperior" unicode="&#xb9;" horiz-adv-x="251" 
d="M49 1690h137v-639h-69v569h-68v70z" />
    <glyph glyph-name="ordmasculine" unicode="&#xba;" horiz-adv-x="970" 
d="M489 1720q155 0 259 -96.5t104 -247.5q0 -152 -102 -249t-261 -97q-160 0 -261 97t-101 249q0 151 103 247.5t259 96.5zM489 1624q-107 0 -178 -70.5t-71 -177.5q0 -109 69.5 -179.5t179.5 -70.5q109 0 178.5 70.5t69.5 179.5q0 107 -71 177.5t-177 70.5z" />
    <glyph glyph-name="guillemotright" unicode="&#xbb;" horiz-adv-x="1126" 
d="M584 999l104 82l399 -512l-399 -512l-104 82l336 430zM72 999l104 82l399 -512l-399 -512l-104 82l336 430z" />
    <glyph glyph-name="onequarter" unicode="&#xbc;" horiz-adv-x="1550" 
d="M252 2h-127l983 1688h125zM782 305v45l463 631h109v-580h114v-96h-114v-305h-105v305h-467zM928 401h321v430zM133 1690h213v-981h-108v872h-105v109z" />
    <glyph glyph-name="onehalf" unicode="&#xbd;" horiz-adv-x="1869" 
d="M252 0h-127l983 1690h127zM1004 688q0 40 22.5 90t62.5 97.5t104.5 79.5t137.5 32q69 0 126.5 -19t96 -51t65 -74t38.5 -87t12 -92q0 -31 -8.5 -63.5t-19.5 -60t-35 -61t-42 -57.5t-53 -59t-56 -55t-64 -56t-63 -52t-67 -53.5t-63 -50.5h490v-96h-697v51q20 16 82.5 64.5
t103.5 82t104 87t104.5 97.5t83 95t62.5 98.5t21 88.5q0 86 -60.5 156.5t-160.5 70.5q-92 0 -162.5 -82t-70.5 -158zM133 1690h213v-983h-108v874h-105v109z" />
    <glyph glyph-name="threequarters" unicode="&#xbe;" horiz-adv-x="1865" 
d="M567 2h-125l981 1688h125zM129 1464q2 38 19.5 76.5t49 74.5t85 58.5t120.5 22.5q115 0 195 -75.5t80 -184.5q0 -72 -39 -131t-100 -86q72 -25 114.5 -89.5t42.5 -148.5q0 -121 -83 -200t-222 -79q-79 0 -139 22t-95 60t-53.5 78t-25.5 86l100 39q12 -84 62.5 -135
t150.5 -51q92 0 144.5 50t52.5 130q0 83 -58.5 140t-138.5 57l-35 -4v77h35q76 0 131.5 53.5t55.5 131.5q0 70 -52.5 120t-124.5 50q-81 0 -128.5 -49.5t-55.5 -124.5zM1098 305v45l463 631h108v-580h115v-96h-115v-305h-104v305h-467zM1243 401h322v430z" />
    <glyph glyph-name="questiondown" unicode="&#xbf;" horiz-adv-x="1193" 
d="M1128 -88q-5 -99 -42 -185t-101 -151t-161.5 -102t-215.5 -37q-99 0 -185.5 29t-148 78t-105.5 114t-65.5 137t-21.5 146q0 89 30 173t87 155t150.5 119t209.5 58v263h168v-424q-36 10 -102 10q-178 0 -274.5 -102.5t-96.5 -251.5q0 -147 94.5 -243.5t259.5 -96.5
q168 0 263.5 92.5t103.5 245.5zM643 942q-53 0 -89 36t-36 89t36 89t89 36t89 -36t36 -89t-36 -89t-89 -36z" />
    <glyph glyph-name="Agrave" unicode="&#xc0;" horiz-adv-x="1466" 
d="M647 1690h172l668 -1690h-203l-192 510h-717l-193 -510h-202zM440 676h586l-293 764zM391 2046l101 133l305 -248l-64 -90z" />
    <glyph glyph-name="Aacute" unicode="&#xc1;" horiz-adv-x="1466" 
d="M647 1690h172l668 -1690h-203l-192 510h-717l-193 -510h-202zM440 676h586l-293 764zM670 1933l305 248l100 -133l-342 -205z" />
    <glyph glyph-name="Acircumflex" unicode="&#xc2;" horiz-adv-x="1466" 
d="M647 1690h172l668 -1690h-203l-192 510h-717l-193 -510h-202zM440 676h586l-293 764zM346 1942l387 284l387 -284l-73 -101l-314 230l-313 -230z" />
    <glyph glyph-name="Atilde" unicode="&#xc3;" horiz-adv-x="1466" 
d="M647 1690h172l668 -1690h-203l-192 510h-717l-193 -510h-202zM440 676h586l-293 764zM203 2064q14 24 30 45.5t47 55.5t64 58.5t79.5 42.5t94.5 18q126 0 256 -99q91 -71 174 -71q125 0 215 159l101 -88q-14 -23 -30 -45t-47.5 -56t-64 -58t-79.5 -42t-95 -18
q-127 0 -256 98q-92 72 -174 72q-124 0 -215 -160z" />
    <glyph glyph-name="Adieresis" unicode="&#xc4;" horiz-adv-x="1466" 
d="M647 1690h172l668 -1690h-203l-192 510h-717l-193 -510h-202zM440 676h586l-293 764zM494 2173q43 0 73.5 -31t30.5 -74t-30.5 -73.5t-73.5 -30.5t-74 30.5t-31 73.5t31 74t74 31zM973 2173q43 0 73.5 -31t30.5 -74t-30.5 -73.5t-73.5 -30.5t-74 30.5t-31 73.5t31 74
t74 31z" />
    <glyph glyph-name="Aring" unicode="&#xc5;" horiz-adv-x="1466" 
d="M647 1690h172l668 -1690h-203l-192 510h-717l-193 -510h-202zM440 676h586l-293 764zM481 2140q0 96 73 158.5t179 62.5q107 0 179.5 -62.5t72.5 -158.5q0 -98 -71 -160.5t-181 -62.5q-112 0 -182 62t-70 161zM596 2140q0 -56 38 -91.5t99 -35.5t99 35.5t38 91.5
q0 54 -39 89.5t-98 35.5t-98 -35.5t-39 -89.5z" />
    <glyph glyph-name="AE" unicode="&#xc6;" horiz-adv-x="1755" 
d="M676 1690h956v-166h-680v-594h656v-166h-656v-598h680v-166h-868v510h-387l-201 -510h-203zM442 676h322v813z" />
    <glyph glyph-name="Ccedilla" unicode="&#xc7;" horiz-adv-x="1632" 
d="M782 -258l76 235q-159 24 -297.5 101.5t-237.5 191t-155.5 262.5t-56.5 312q0 180 69.5 342.5t187.5 279.5t283.5 185.5t349.5 68.5t324 -52t225 -120l-86 -157q-72 58 -187.5 100.5t-250.5 42.5q-161 0 -296.5 -56t-225.5 -151.5t-139.5 -220t-49.5 -262.5t49.5 -262.5
t139.5 -220t225.5 -151.5t296.5 -56q135 0 250.5 42.5t187.5 100.5l86 -158q-85 -68 -225 -120t-324 -52q-8 0 -24.5 1t-24.5 1l-41 -127q20 4 62 4q90 0 157.5 -59t67.5 -154q0 -101 -73 -168t-201 -67q-98 0 -177 52t-108 106l86 59q24 -42 78 -76.5t121 -34.5
q68 0 112.5 34t44.5 95t-42.5 99.5t-104.5 38.5q-82 0 -139 -37z" />
    <glyph glyph-name="Egrave" unicode="&#xc8;" horiz-adv-x="1183" 
d="M193 1690h868v-166h-680v-594h655v-166h-655v-598h680v-166h-868v1690zM362 2048l101 133l305 -248l-63 -90z" />
    <glyph glyph-name="Eacute" unicode="&#xc9;" horiz-adv-x="1183" 
d="M193 1690h868v-166h-680v-594h655v-166h-655v-598h680v-166h-868v1690zM485 1933l306 248l100 -133l-342 -205z" />
    <glyph glyph-name="Ecircumflex" unicode="&#xca;" horiz-adv-x="1183" 
d="M193 1690h868v-166h-680v-594h655v-166h-655v-598h680v-166h-868v1690zM240 1942l387 284l387 -284l-74 -101l-313 230l-314 -230z" />
    <glyph glyph-name="Edieresis" unicode="&#xcb;" horiz-adv-x="1183" 
d="M193 1690h868v-166h-680v-594h655v-166h-655v-598h680v-166h-868v1690zM387 2175q43 0 74 -30.5t31 -73.5t-31 -74t-74 -31t-73.5 31t-30.5 74t30.5 73.5t73.5 30.5zM866 2175q43 0 74 -30.5t31 -73.5t-31 -74t-74 -31t-73.5 31t-30.5 74t30.5 73.5t73.5 30.5z" />
    <glyph glyph-name="Igrave" unicode="&#xcc;" horiz-adv-x="573" 
d="M193 1690h188v-1690h-188v1690zM-55 2046l100 133l305 -248l-63 -90z" />
    <glyph glyph-name="Iacute" unicode="&#xcd;" horiz-adv-x="573" 
d="M193 1690h188v-1690h-188v1690zM223 1933l305 248l101 -133l-342 -205z" />
    <glyph glyph-name="Icircumflex" unicode="&#xce;" horiz-adv-x="573" 
d="M193 1690h188v-1690h-188v1690zM-100 1942l387 284l387 -284l-74 -101l-313 230l-314 -230z" />
    <glyph glyph-name="Idieresis" unicode="&#xcf;" horiz-adv-x="573" 
d="M193 1690h188v-1690h-188v1690zM47 2175q43 0 74 -30.5t31 -73.5t-31 -74t-74 -31t-73.5 31t-30.5 74t30.5 73.5t73.5 30.5zM526 2175q43 0 74 -30.5t31 -73.5t-31 -74t-74 -31t-73.5 31t-30.5 74t30.5 73.5t73.5 30.5z" />
    <glyph glyph-name="Eth" unicode="&#xd0;" horiz-adv-x="1550" 
d="M193 1690h395q173 0 329 -63.5t271.5 -173.5t183.5 -268.5t68 -338.5q0 -181 -68 -340t-183.5 -269t-271.5 -173.5t-329 -63.5h-395v768h-168v154h168v768zM381 1522v-600h420v-154h-420v-600h188q185 0 338.5 87t243.5 243t90 348q0 142 -53 268.5t-143.5 215.5
t-214.5 140.5t-261 51.5h-188z" />
    <glyph glyph-name="Ntilde" unicode="&#xd1;" horiz-adv-x="1638" 
d="M193 1690h188l876 -1371v1371h189v-1690h-189l-876 1370v-1370h-188v1690zM289 2066q14 24 30 45.5t47 55.5t64 58.5t79.5 42.5t94.5 18q126 0 256 -99q91 -71 174 -71q125 0 215 159l101 -88q-14 -23 -30 -45t-47.5 -56t-64 -58t-79.5 -42t-95 -18q-127 0 -256 98
q-92 72 -174 72q-124 0 -215 -160z" />
    <glyph glyph-name="Ograve" unicode="&#xd2;" horiz-adv-x="1925" 
d="M698 2048l101 133l305 -248l-64 -90zM313 844q0 -188 82.5 -346.5t232.5 -253t335 -94.5t335 94.5t232 253t82 346.5t-82 346.5t-232 253t-335 94.5t-335 -94.5t-232.5 -253t-82.5 -346.5zM111 844q0 240 111 440.5t307 318t434 117.5t434 -117.5t307 -318t111 -440.5
q0 -179 -65.5 -341t-178 -280t-271.5 -187t-337 -69t-337 69t-271.5 187t-178 280t-65.5 341z" />
    <glyph glyph-name="Oacute" unicode="&#xd3;" horiz-adv-x="1925" 
d="M821 1933l305 248l101 -133l-342 -205zM313 844q0 -188 82.5 -346.5t232.5 -253t335 -94.5t335 94.5t232 253t82 346.5t-82 346.5t-232 253t-335 94.5t-335 -94.5t-232.5 -253t-82.5 -346.5zM111 844q0 240 111 440.5t307 318t434 117.5t434 -117.5t307 -318t111 -440.5
q0 -179 -65.5 -341t-178 -280t-271.5 -187t-337 -69t-337 69t-271.5 187t-178 280t-65.5 341z" />
    <glyph glyph-name="Ocircumflex" unicode="&#xd4;" horiz-adv-x="1925" 
d="M575 1942l388 284l387 -284l-74 -101l-313 230l-314 -230zM313 844q0 -188 82.5 -346.5t232.5 -253t335 -94.5t335 94.5t232 253t82 346.5t-82 346.5t-232 253t-335 94.5t-335 -94.5t-232.5 -253t-82.5 -346.5zM111 844q0 240 111 440.5t307 318t434 117.5t434 -117.5
t307 -318t111 -440.5q0 -179 -65.5 -341t-178 -280t-271.5 -187t-337 -69t-337 69t-271.5 187t-178 280t-65.5 341z" />
    <glyph glyph-name="Otilde" unicode="&#xd5;" horiz-adv-x="1925" 
d="M432 2052q14 23 30 45t47.5 56t64 58t79.5 42t95 18q127 0 256 -98q92 -72 174 -72q124 0 215 160l100 -88q-19 -31 -42 -60t-63.5 -69.5t-95.5 -65t-114 -24.5q-127 0 -256 98q-92 72 -174 72q-125 0 -216 -160zM313 844q0 -188 82.5 -346.5t232.5 -253t335 -94.5
t335 94.5t232 253t82 346.5t-82 346.5t-232 253t-335 94.5t-335 -94.5t-232.5 -253t-82.5 -346.5zM111 844q0 240 111 440.5t307 318t434 117.5t434 -117.5t307 -318t111 -440.5q0 -179 -65.5 -341t-178 -280t-271.5 -187t-337 -69t-337 69t-271.5 187t-178 280t-65.5 341z
" />
    <glyph glyph-name="Odieresis" unicode="&#xd6;" horiz-adv-x="1925" 
d="M723 2175q43 0 73.5 -30.5t30.5 -73.5t-30.5 -74t-73.5 -31t-74 31t-31 74t31 73.5t74 30.5zM1202 2175q43 0 74 -30.5t31 -73.5t-31 -74t-74 -31t-73.5 31t-30.5 74t30.5 73.5t73.5 30.5zM313 844q0 -188 82.5 -346.5t232.5 -253t335 -94.5t335 94.5t232 253t82 346.5
t-82 346.5t-232 253t-335 94.5t-335 -94.5t-232.5 -253t-82.5 -346.5zM111 844q0 240 111 440.5t307 318t434 117.5t434 -117.5t307 -318t111 -440.5q0 -179 -65.5 -341t-178 -280t-271.5 -187t-337 -69t-337 69t-271.5 187t-178 280t-65.5 341z" />
    <glyph glyph-name="multiply" unicode="&#xd7;" horiz-adv-x="1183" 
d="M115 1219l108 106l369 -369l369 369l108 -106l-369 -371l369 -371l-108 -106l-369 368l-369 -368l-108 106l368 371z" />
    <glyph glyph-name="Oslash" unicode="&#xd8;" horiz-adv-x="1925" 
d="M111 844q0 240 111 440.5t307 318t434 117.5q264 0 477 -145l104 133l121 -90l-109 -139q122 -122 190.5 -286.5t68.5 -348.5q0 -179 -65.5 -341t-178 -280t-271.5 -187t-337 -69q-266 0 -480 146l-102 -129l-119 90l107 135q-123 121 -190.5 285.5t-67.5 349.5z
M1612 844q0 138 -46 262t-130 219l-836 -1063q156 -112 363 -112q185 0 335 94.5t232 253t82 346.5zM313 844q0 -139 45 -263.5t129 -218.5l836 1063q-160 113 -360 113q-185 0 -335 -94.5t-232.5 -253t-82.5 -346.5z" />
    <glyph glyph-name="Ugrave" unicode="&#xd9;" horiz-adv-x="1536" 
d="M1176 1690h188v-1086q0 -314 -152.5 -475.5t-443.5 -161.5t-443.5 161.5t-152.5 475.5v1086h188v-1041q0 -254 101 -374.5t307 -120.5t307 120.5t101 374.5v1041zM524 2048l101 133l305 -248l-64 -90z" />
    <glyph glyph-name="Uacute" unicode="&#xda;" horiz-adv-x="1536" 
d="M1176 1690h188v-1086q0 -314 -152.5 -475.5t-443.5 -161.5t-443.5 161.5t-152.5 475.5v1086h188v-1041q0 -254 101 -374.5t307 -120.5t307 120.5t101 374.5v1041zM606 1933l305 248l101 -133l-342 -205z" />
    <glyph glyph-name="Ucircumflex" unicode="&#xdb;" horiz-adv-x="1536" 
d="M1176 1690h188v-1086q0 -314 -152.5 -475.5t-443.5 -161.5t-443.5 161.5t-152.5 475.5v1086h188v-1041q0 -254 101 -374.5t307 -120.5t307 120.5t101 374.5v1041zM381 1942l387 284l387 -284l-74 -101l-313 230l-313 -230z" />
    <glyph glyph-name="Udieresis" unicode="&#xdc;" horiz-adv-x="1536" 
d="M1176 1690h188v-1086q0 -314 -152.5 -475.5t-443.5 -161.5t-443.5 161.5t-152.5 475.5v1086h188v-1041q0 -254 101 -374.5t307 -120.5t307 120.5t101 374.5v1041zM528 2175q43 0 74 -30.5t31 -73.5t-31 -74t-74 -31t-73.5 31t-30.5 74t30.5 73.5t73.5 30.5zM1008 2175
q43 0 73.5 -30.5t30.5 -73.5t-30.5 -74t-73.5 -31t-74 31t-31 74t31 73.5t74 30.5z" />
    <glyph glyph-name="Yacute" unicode="&#xdd;" horiz-adv-x="1318" 
d="M-20 1690h227l452 -756l453 756h227l-585 -955v-735h-189v735zM498 1933l305 248l100 -133l-342 -205z" />
    <glyph glyph-name="Thorn" unicode="&#xde;" horiz-adv-x="1746" 
d="M193 1690h188v-359h274q252 0 398.5 -127.5t146.5 -355.5t-148.5 -365t-396.5 -137h-274v-346h-188v1690zM381 1180v-678h225q182 0 288.5 91t106.5 251t-106 248t-289 88h-225z" />
    <glyph glyph-name="germandbls" unicode="&#xdf;" horiz-adv-x="1316" 
d="M217 1321q0 98 38 186t101.5 150t150 98.5t181.5 36.5q203 0 339 -134.5t136 -330.5q0 -130 -68 -232.5t-182 -152.5q141 -55 226.5 -175t85.5 -278q0 -141 -71.5 -261t-195.5 -190.5t-272 -70.5h-145v168h110q93 0 168 31t121.5 82.5t71 115t24.5 132.5q0 143 -92 247.5
t-229 114.5q-110 8 -174 8v144q93 0 178 12q115 9 193.5 96.5t78.5 208.5q0 132 -86.5 220.5t-216.5 88.5q-131 0 -212 -98.5t-81 -253.5v-1284h-178v731h-135v146h135v444z" />
    <glyph glyph-name="agrave" unicode="&#xe0;" 
d="M111 524q0 157 68 284.5t188 200t268 72.5q136 0 246 -62t174 -171v201h180v-1049h-180v207q-64 -111 -174.5 -175.5t-245.5 -64.5q-148 0 -268 72.5t-188 200t-68 284.5zM299 524q0 -175 107.5 -288t273.5 -113t273.5 113t107.5 288q0 176 -108 289t-273 113
q-164 0 -272.5 -113t-108.5 -289zM430 1407l100 133l306 -248l-64 -90z" />
    <glyph glyph-name="aacute" unicode="&#xe1;" 
d="M111 524q0 157 68 284.5t188 200t268 72.5q136 0 246 -62t174 -171v201h180v-1049h-180v207q-64 -111 -174.5 -175.5t-245.5 -64.5q-148 0 -268 72.5t-188 200t-68 284.5zM299 524q0 -175 107.5 -288t273.5 -113t273.5 113t107.5 288q0 176 -108 289t-273 113
q-164 0 -272.5 -113t-108.5 -289zM512 1292l305 248l101 -133l-343 -205z" />
    <glyph glyph-name="acircumflex" unicode="&#xe2;" 
d="M111 524q0 157 68 284.5t188 200t268 72.5q136 0 246 -62t174 -171v201h180v-1049h-180v207q-64 -111 -174.5 -175.5t-245.5 -64.5q-148 0 -268 72.5t-188 200t-68 284.5zM299 524q0 -175 107.5 -288t273.5 -113t273.5 113t107.5 288q0 176 -108 289t-273 113
q-164 0 -272.5 -113t-108.5 -289zM287 1303l387 284l387 -284l-74 -101l-313 230l-314 -230z" />
    <glyph glyph-name="atilde" unicode="&#xe3;" 
d="M111 524q0 157 68 284.5t188 200t268 72.5q136 0 246 -62t174 -171v201h180v-1049h-180v207q-64 -111 -174.5 -175.5t-245.5 -64.5q-148 0 -268 72.5t-188 200t-68 284.5zM299 524q0 -175 107.5 -288t273.5 -113t273.5 113t107.5 288q0 176 -108 289t-273 113
q-164 0 -272.5 -113t-108.5 -289zM143 1350q14 23 30 45t47.5 56t64 58t79.5 42t95 18q126 0 256 -99q91 -71 174 -71q124 0 215 160l100 -89q-19 -31 -42 -60t-63.5 -69.5t-95.5 -65t-114 -24.5q-126 0 -256 99q-91 71 -174 71q-125 0 -215 -159z" />
    <glyph glyph-name="adieresis" unicode="&#xe4;" 
d="M111 524q0 157 68 284.5t188 200t268 72.5q136 0 246 -62t174 -171v201h180v-1049h-180v207q-64 -111 -174.5 -175.5t-245.5 -64.5q-148 0 -268 72.5t-188 200t-68 284.5zM299 524q0 -175 107.5 -288t273.5 -113t273.5 113t107.5 288q0 176 -108 289t-273 113
q-164 0 -272.5 -113t-108.5 -289zM432 1536q43 0 74 -30.5t31 -73.5t-31 -74t-74 -31t-73.5 31t-30.5 74t30.5 73.5t73.5 30.5zM911 1536q43 0 74 -30.5t31 -73.5t-31 -74t-74 -31t-73.5 31t-30.5 74t30.5 73.5t73.5 30.5z" />
    <glyph glyph-name="aring" unicode="&#xe5;" 
d="M111 524q0 157 68 284.5t188 200t268 72.5q136 0 246 -62t174 -171v201h180v-1049h-180v207q-64 -111 -174.5 -175.5t-245.5 -64.5q-148 0 -268 72.5t-188 200t-68 284.5zM299 524q0 -175 107.5 -288t273.5 -113t273.5 113t107.5 288q0 176 -108 289t-273 113
q-164 0 -272.5 -113t-108.5 -289zM420 1501q0 96 73 158.5t179 62.5q107 0 179.5 -62.5t72.5 -158.5q0 -98 -71 -160.5t-181 -62.5q-112 0 -182 62t-70 161zM535 1501q0 -56 38 -91.5t99 -35.5t99 35.5t38 91.5q0 54 -39 89.5t-98 35.5t-98 -35.5t-39 -89.5z" />
    <glyph glyph-name="ae" unicode="&#xe6;" horiz-adv-x="2115" 
d="M168 295q0 150 112 246t289 96q117 0 206 -36t138 -93v119q0 145 -85 227t-226 82q-105 0 -181.5 -35.5t-115.5 -79.5l-72 119q44 57 143.5 99t225.5 42q144 0 256.5 -53.5t173.5 -155.5q76 97 189 153t241 56q114 0 215 -41t174.5 -113t116.5 -176.5t43 -226.5v-20h-919
q0 -116 54.5 -206t143.5 -136.5t195 -46.5q231 0 360 182l133 -70q-78 -129 -208 -194.5t-295 -65.5q-162 0 -275 63.5t-182 155.5q-149 -219 -443 -219q-175 0 -291 91t-116 237zM344 309q0 -98 84 -160.5t205 -62.5t205 63.5t84 159.5q0 95 -83.5 156t-205.5 61
t-205.5 -60t-83.5 -157zM1096 616h739q-15 147 -119.5 242.5t-249.5 95.5q-149 0 -252.5 -97t-117.5 -241z" />
    <glyph glyph-name="ccedilla" unicode="&#xe7;" horiz-adv-x="1134" 
d="M465 -258l78 240q-190 42 -313.5 191.5t-123.5 350.5q0 156 77 284.5t207 200.5t284 72q264 0 358 -112l-84 -133q-30 33 -98 53t-156 20q-174 0 -288.5 -106.5t-114.5 -278.5t114.5 -278.5t288.5 -106.5q88 0 156 20.5t96 53.5l86 -135q-99 -111 -358 -111q-27 0 -39 2
l-41 -127q20 4 61 4q91 0 158.5 -59.5t67.5 -153.5q0 -101 -73.5 -168t-201.5 -67q-98 0 -176 52t-108 106l86 59q24 -42 77.5 -76.5t120.5 -34.5q68 0 113 34t45 95t-43 99.5t-105 38.5q-82 0 -139 -37z" />
    <glyph glyph-name="egrave" unicode="&#xe8;" horiz-adv-x="1310" 
d="M104 524q0 114 44 217t118 177.5t176.5 118.5t214.5 44q114 0 215 -41t174.5 -113t116.5 -176.5t43 -226.5v-20h-919q0 -116 54.5 -206t143.5 -136.5t195 -46.5q231 0 360 182l134 -70q-78 -129 -208.5 -194.5t-295.5 -65.5q-156 0 -285.5 72.5t-205 200.5t-75.5 284z
M291 616h739q-15 145 -118 231.5t-250 86.5q-151 0 -254.5 -88t-116.5 -230zM412 1407l100 133l305 -248l-63 -90z" />
    <glyph glyph-name="eacute" unicode="&#xe9;" horiz-adv-x="1310" 
d="M104 524q0 114 44 217t118 177.5t176.5 118.5t214.5 44q114 0 215 -41t174.5 -113t116.5 -176.5t43 -226.5v-20h-919q0 -116 54.5 -206t143.5 -136.5t195 -46.5q231 0 360 182l134 -70q-78 -129 -208.5 -194.5t-295.5 -65.5q-156 0 -285.5 72.5t-205 200.5t-75.5 284z
M291 616h739q-15 145 -118 231.5t-250 86.5q-151 0 -254.5 -88t-116.5 -230zM494 1292l305 248l100 -133l-342 -205z" />
    <glyph glyph-name="ecircumflex" unicode="&#xea;" horiz-adv-x="1310" 
d="M104 524q0 114 44 217t118 177.5t176.5 118.5t214.5 44q114 0 215 -41t174.5 -113t116.5 -176.5t43 -226.5v-20h-919q0 -116 54.5 -206t143.5 -136.5t195 -46.5q231 0 360 182l134 -70q-78 -129 -208.5 -194.5t-295.5 -65.5q-156 0 -285.5 72.5t-205 200.5t-75.5 284z
M291 616h739q-15 145 -118 231.5t-250 86.5q-151 0 -254.5 -88t-116.5 -230zM268 1303l387 284l387 -284l-73 -101l-314 230l-313 -230z" />
    <glyph glyph-name="edieresis" unicode="&#xeb;" horiz-adv-x="1310" 
d="M104 524q0 114 44 217t118 177.5t176.5 118.5t214.5 44q114 0 215 -41t174.5 -113t116.5 -176.5t43 -226.5v-20h-919q0 -116 54.5 -206t143.5 -136.5t195 -46.5q231 0 360 182l134 -70q-78 -129 -208.5 -194.5t-295.5 -65.5q-156 0 -285.5 72.5t-205 200.5t-75.5 284z
M291 616h739q-15 145 -118 231.5t-250 86.5q-151 0 -254.5 -88t-116.5 -230zM416 1452q43 0 73.5 -30.5t30.5 -73.5t-30.5 -74t-73.5 -31t-74 31t-31 74t31 73.5t74 30.5zM895 1452q43 0 73.5 -30.5t30.5 -73.5t-30.5 -74t-73.5 -31t-73.5 31t-30.5 74t30.5 73.5t73.5 30.5z
" />
    <glyph glyph-name="igrave" unicode="&#xec;" horiz-adv-x="548" 
d="M184 1049h181v-1049h-181v1049zM-68 1407l101 133l305 -248l-64 -90z" />
    <glyph glyph-name="iacute" unicode="&#xed;" horiz-adv-x="548" 
d="M184 1049h181v-1049h-181v1049zM516 1540l100 -133l-342 -205l-63 90z" />
    <glyph glyph-name="icircumflex" unicode="&#xee;" horiz-adv-x="548" 
d="M184 1049h181v-1049h-181v1049zM-113 1303l387 284l388 -284l-74 -101l-314 230l-313 -230z" />
    <glyph glyph-name="idieresis" unicode="&#xef;" horiz-adv-x="548" 
d="M184 1049h181v-1049h-181v1049zM35 1460q43 0 73.5 -30.5t30.5 -73.5t-30.5 -74t-73.5 -31t-74 31t-31 74t31 73.5t74 30.5zM514 1460q43 0 73.5 -30.5t30.5 -73.5t-30.5 -74t-73.5 -31t-73.5 31t-30.5 74t30.5 73.5t73.5 30.5z" />
    <glyph glyph-name="eth" unicode="&#xf0;" horiz-adv-x="1417" 
d="M119 524q0 122 46 228t122 177t175 111.5t204 40.5q108 0 207 -45t159 -127q-85 343 -334 539l-161 -162l-88 88l141 142q-123 75 -256 120l45 156q199 -73 334 -154l153 154l86 -88l-133 -133q222 -175 349.5 -438.5t127.5 -608.5q0 -243 -167 -400t-420 -157
q-257 0 -423.5 156.5t-166.5 400.5zM305 524q0 -175 112.5 -288t289.5 -113q175 0 289 113t114 288q0 174 -115 288t-288 114q-174 0 -288 -114t-114 -288z" />
    <glyph glyph-name="ntilde" unicode="&#xf1;" horiz-adv-x="1282" 
d="M184 1049h181v-138q49 81 140 125.5t183 44.5q195 0 310.5 -108t115.5 -303v-670h-180v621q0 147 -71.5 232t-209.5 85q-124 0 -206 -82.5t-82 -185.5v-670h-181v1049zM119 1343q14 24 30 45.5t47 55.5t64 58.5t79.5 42.5t94.5 18q126 0 256 -99q91 -71 174 -71
q125 0 215 159l101 -88q-14 -23 -30 -45t-47.5 -56t-64 -58t-79.5 -42t-95 -18q-127 0 -256 98q-92 72 -174 72q-124 0 -215 -160z" />
    <glyph glyph-name="ograve" unicode="&#xf2;" horiz-adv-x="1382" 
d="M446 1407l101 133l305 -248l-64 -90zM289 524q0 -175 113 -288t288 -113t288.5 113t113.5 288t-113.5 288.5t-288.5 113.5t-288 -113.5t-113 -288.5zM104 524q0 163 77 290.5t210.5 197t298.5 69.5t298.5 -69.5t210.5 -197t77 -290.5t-77 -290.5t-210.5 -197
t-298.5 -69.5t-298.5 69.5t-210.5 197t-77 290.5z" />
    <glyph glyph-name="oacute" unicode="&#xf3;" horiz-adv-x="1382" 
d="M528 1292l306 248l100 -133l-342 -205zM289 524q0 -175 113 -288t288 -113t288.5 113t113.5 288t-113.5 288.5t-288.5 113.5t-288 -113.5t-113 -288.5zM104 524q0 163 77 290.5t210.5 197t298.5 69.5t298.5 -69.5t210.5 -197t77 -290.5t-77 -290.5t-210.5 -197
t-298.5 -69.5t-298.5 69.5t-210.5 197t-77 290.5z" />
    <glyph glyph-name="ocircumflex" unicode="&#xf4;" horiz-adv-x="1382" 
d="M303 1303l387 284l387 -284l-73 -101l-314 230l-313 -230zM289 524q0 -175 113 -288t288 -113t288.5 113t113.5 288t-113.5 288.5t-288.5 113.5t-288 -113.5t-113 -288.5zM104 524q0 163 77 290.5t210.5 197t298.5 69.5t298.5 -69.5t210.5 -197t77 -290.5t-77 -290.5
t-210.5 -197t-298.5 -69.5t-298.5 69.5t-210.5 197t-77 290.5z" />
    <glyph glyph-name="otilde" unicode="&#xf5;" horiz-adv-x="1382" 
d="M160 1321q19 31 42 60t63.5 69.5t95.5 65t114 24.5q127 0 256 -98q92 -72 174 -72q124 0 215 160l101 -88q-14 -23 -30 -45t-47.5 -56t-64 -58t-79.5 -42t-95 -18q-127 0 -256 98q-92 72 -174 72q-124 0 -215 -160zM289 524q0 -175 113 -288t288 -113t288.5 113
t113.5 288t-113.5 288.5t-288.5 113.5t-288 -113.5t-113 -288.5zM104 524q0 163 77 290.5t210.5 197t298.5 69.5t298.5 -69.5t210.5 -197t77 -290.5t-77 -290.5t-210.5 -197t-298.5 -69.5t-298.5 69.5t-210.5 197t-77 290.5z" />
    <glyph glyph-name="odieresis" unicode="&#xf6;" horiz-adv-x="1382" 
d="M451 1536q43 0 73.5 -30.5t30.5 -73.5t-30.5 -74t-73.5 -31t-74 31t-31 74t31 73.5t74 30.5zM930 1536q43 0 73.5 -30.5t30.5 -73.5t-30.5 -74t-73.5 -31t-74 31t-31 74t31 73.5t74 30.5zM289 524q0 -175 113 -288t288 -113t288.5 113t113.5 288t-113.5 288.5
t-288.5 113.5t-288 -113.5t-113 -288.5zM104 524q0 163 77 290.5t210.5 197t298.5 69.5t298.5 -69.5t210.5 -197t77 -290.5t-77 -290.5t-210.5 -197t-298.5 -69.5t-298.5 69.5t-210.5 197t-77 290.5z" />
    <glyph glyph-name="divide" unicode="&#xf7;" horiz-adv-x="1339" 
d="M670 1442q41 0 69.5 -29t28.5 -70t-28.5 -69.5t-69.5 -28.5t-70 28.5t-29 69.5t29 70t70 29zM145 928h1049v-156h-1049v156zM670 455q41 0 69.5 -29t28.5 -70t-28.5 -69.5t-69.5 -28.5t-70 28.5t-29 69.5t29 70t70 29z" />
    <glyph glyph-name="oslash" unicode="&#xf8;" horiz-adv-x="1382" 
d="M104 524q0 163 77 290.5t210.5 197t298.5 69.5q125 0 233 -40.5t187 -116.5l197 159l59 -71l-195 -158q105 -143 105 -330q0 -163 -77 -290.5t-210.5 -197t-298.5 -69.5q-125 0 -233 41t-187 115l-196 -158l-60 72l195 158q-105 140 -105 329zM1092 524q0 118 -60 217
l-629 -508q113 -110 287 -110q175 0 288.5 113t113.5 288zM289 524q0 -125 57 -219l629 510q-111 111 -285 111q-175 0 -288 -113.5t-113 -288.5z" />
    <glyph glyph-name="ugrave" unicode="&#xf9;" horiz-adv-x="1257" 
d="M168 1049h180v-576q0 -105 18 -175.5t55.5 -109.5t87 -55t120.5 -16q57 0 99 9.5t77 33.5t57.5 64.5t34.5 102t12 146.5v576h181v-611q0 -254 -111.5 -362.5t-349.5 -108.5t-349.5 108.5t-111.5 362.5v611zM385 1407l100 133l306 -248l-64 -90z" />
    <glyph glyph-name="uacute" unicode="&#xfa;" horiz-adv-x="1257" 
d="M168 1049h180v-576q0 -105 18 -175.5t55.5 -109.5t87 -55t120.5 -16q57 0 99 9.5t77 33.5t57.5 64.5t34.5 102t12 146.5v576h181v-611q0 -254 -111.5 -362.5t-349.5 -108.5t-349.5 108.5t-111.5 362.5v611zM467 1292l305 248l100 -133l-342 -205z" />
    <glyph glyph-name="ucircumflex" unicode="&#xfb;" horiz-adv-x="1257" 
d="M168 1049h180v-576q0 -105 18 -175.5t55.5 -109.5t87 -55t120.5 -16q57 0 99 9.5t77 33.5t57.5 64.5t34.5 102t12 146.5v576h181v-611q0 -254 -111.5 -362.5t-349.5 -108.5t-349.5 108.5t-111.5 362.5v611zM242 1303l387 284l387 -284l-74 -101l-313 230l-314 -230z" />
    <glyph glyph-name="udieresis" unicode="&#xfc;" horiz-adv-x="1257" 
d="M168 1049h180v-576q0 -105 18 -175.5t55.5 -109.5t87 -55t120.5 -16q57 0 99 9.5t77 33.5t57.5 64.5t34.5 102t12 146.5v576h181v-611q0 -254 -111.5 -362.5t-349.5 -108.5t-349.5 108.5t-111.5 362.5v611zM389 1452q43 0 74 -30.5t31 -73.5t-31 -74t-74 -31t-73.5 31
t-30.5 74t30.5 73.5t73.5 30.5zM868 1452q43 0 74 -30.5t31 -73.5t-31 -74t-74 -31t-73.5 31t-30.5 74t30.5 73.5t73.5 30.5z" />
    <glyph glyph-name="yacute" unicode="&#xfd;" horiz-adv-x="1146" 
d="M-10 1049h207l397 -822l356 822h207l-737 -1581h-203l272 577zM432 1292l305 248l101 -133l-342 -205z" />
    <glyph glyph-name="thorn" unicode="&#xfe;" horiz-adv-x="1413" 
d="M184 -532v2295h181v-915q64 109 173.5 171t245.5 62q148 0 268.5 -72.5t188.5 -200t68 -284.5t-68 -284.5t-188.5 -200t-268.5 -72.5q-135 0 -245 64.5t-174 175.5v-739h-181zM1120 524q0 176 -108.5 289t-272.5 113q-165 0 -273 -113t-108 -289q0 -175 107.5 -288
t273.5 -113t273.5 113t107.5 288z" />
    <glyph glyph-name="ydieresis" unicode="&#xff;" horiz-adv-x="1146" 
d="M-10 1049h207l397 -822l356 822h207l-737 -1581h-203l272 577zM354 1452q43 0 74 -30.5t31 -73.5t-31 -74t-74 -31t-73.5 31t-30.5 74t30.5 73.5t73.5 30.5zM834 1452q43 0 73.5 -30.5t30.5 -73.5t-30.5 -74t-73.5 -31t-74 31t-31 74t31 73.5t74 30.5z" />
    <glyph glyph-name="Amacron" unicode="&#x100;" horiz-adv-x="1466" 
d="M647 1690h172l668 -1690h-203l-192 510h-717l-193 -510h-202zM440 676h586l-293 764zM315 2064h836v-127h-836v127z" />
    <glyph glyph-name="amacron" unicode="&#x101;" 
d="M111 524q0 157 68 284.5t188 200t268 72.5q136 0 246 -62t174 -171v201h180v-1049h-180v207q-64 -111 -174.5 -175.5t-245.5 -64.5q-148 0 -268 72.5t-188 200t-68 284.5zM299 524q0 -175 107.5 -288t273.5 -113t273.5 113t107.5 288q0 176 -108 289t-273 113
q-164 0 -272.5 -113t-108.5 -289zM256 1425h836v-127h-836v127z" />
    <glyph glyph-name="Abreve" unicode="&#x102;" horiz-adv-x="1466" 
d="M647 1690h172l668 -1690h-203l-192 510h-717l-193 -510h-202zM440 676h586l-293 764zM1028 2294l135 -33q-26 -150 -144 -243t-286 -93t-286 93t-144 243l135 33q8 -39 29.5 -79.5t56 -79t89.5 -63t120 -24.5t120 24.5t89.5 63t56 79t29.5 79.5z" />
    <glyph glyph-name="abreve" unicode="&#x103;" 
d="M111 524q0 157 68 284.5t188 200t268 72.5q136 0 246 -62t174 -171v201h180v-1049h-180v207q-64 -111 -174.5 -175.5t-245.5 -64.5q-148 0 -268 72.5t-188 200t-68 284.5zM299 524q0 -175 107.5 -288t273.5 -113t273.5 113t107.5 288q0 176 -108 289t-273 113
q-164 0 -272.5 -113t-108.5 -289zM969 1604l135 -33q-26 -150 -144 -243t-286 -93t-286 93t-144 243l135 33q8 -39 29.5 -79.5t56 -79t89.5 -63t120 -24.5t120 24.5t89.5 63t56 79t29.5 79.5z" />
    <glyph glyph-name="Aogonek" unicode="&#x104;" horiz-adv-x="1466" 
d="M647 1690h172l668 -1690h-84q-55 -63 -101.5 -148t-46.5 -161q0 -66 44 -105t110 -39q102 0 190 97l80 -60q-4 -6 -11 -16t-33 -35t-56 -44.5t-78.5 -35.5t-101.5 -16q-111 0 -184.5 66t-73.5 173q0 125 164 324h-21l-192 510h-717l-193 -510h-202zM440 676h586l-293 764
z" />
    <glyph glyph-name="aogonek" unicode="&#x105;" 
d="M893 -324q0 125 164 324h-2v207q-64 -111 -174.5 -175.5t-245.5 -64.5q-148 0 -268 72.5t-188 200t-68 284.5t68 284.5t188 200t268 72.5q136 0 246 -62t174 -171v201h180v-1049h-80q-54 -62 -100.5 -147.5t-46.5 -161.5q0 -66 43.5 -105t109.5 -39q103 0 191 97l80 -60
q-4 -6 -11.5 -16t-33.5 -35t-56 -44.5t-78.5 -35.5t-101.5 -16q-111 0 -184.5 66t-73.5 173zM299 524q0 -175 107.5 -288t273.5 -113t273.5 113t107.5 288q0 176 -108 289t-273 113q-164 0 -272.5 -113t-108.5 -289z" />
    <glyph glyph-name="Cacute" unicode="&#x106;" horiz-adv-x="1632" 
d="M111 844q0 180 69.5 342.5t187.5 279.5t283.5 185.5t349.5 68.5t324 -52t225 -120l-86 -157q-72 58 -187.5 100.5t-250.5 42.5q-161 0 -296.5 -56t-225.5 -151.5t-139.5 -220t-49.5 -262.5t49.5 -262.5t139.5 -220t225.5 -151.5t296.5 -56q135 0 250.5 42.5t187.5 100.5
l86 -158q-85 -68 -225 -120t-324 -52t-349.5 69t-283.5 186t-187.5 279.5t-69.5 342.5zM688 1933l305 248l101 -133l-342 -205z" />
    <glyph glyph-name="cacute" unicode="&#x107;" horiz-adv-x="1132" 
d="M104 524q0 156 77 284.5t207 200.5t284 72q246 0 358 -112l-84 -133q-30 33 -98 53t-156 20q-174 0 -288.5 -106.5t-114.5 -278.5t114.5 -278.5t288.5 -106.5q88 0 156 20.5t96 53.5l86 -135q-57 -54 -141 -82.5t-217 -28.5q-154 0 -284 72.5t-207 201t-77 283.5z
M406 1292l305 248l100 -133l-342 -205z" />
    <glyph glyph-name="Ccaron" unicode="&#x10c;" horiz-adv-x="1632" 
d="M111 844q0 180 69.5 342.5t187.5 279.5t283.5 185.5t349.5 68.5t324 -52t225 -120l-86 -157q-72 58 -187.5 100.5t-250.5 42.5q-161 0 -296.5 -56t-225.5 -151.5t-139.5 -220t-49.5 -262.5t49.5 -262.5t139.5 -220t225.5 -151.5t296.5 -56q135 0 250.5 42.5t187.5 100.5
l86 -158q-85 -68 -225 -120t-324 -52t-349.5 69t-283.5 186t-187.5 279.5t-69.5 342.5zM553 2126l74 100l313 -229l313 229l74 -100l-387 -285z" />
    <glyph glyph-name="ccaron" unicode="&#x10d;" horiz-adv-x="1132" 
d="M104 524q0 156 77 284.5t207 200.5t284 72q246 0 358 -112l-84 -133q-30 33 -98 53t-156 20q-174 0 -288.5 -106.5t-114.5 -278.5t114.5 -278.5t288.5 -106.5q88 0 156 20.5t96 53.5l86 -135q-57 -54 -141 -82.5t-217 -28.5q-154 0 -284 72.5t-207 201t-77 283.5z
M223 1487l74 100l313 -229l314 229l73 -100l-387 -285z" />
    <glyph glyph-name="Dcaron" unicode="&#x10e;" horiz-adv-x="1550" 
d="M193 1690h395q172 0 328 -63.5t271.5 -173.5t184 -268.5t68.5 -338.5q0 -181 -68 -340t-183.5 -269t-271.5 -173.5t-329 -63.5h-395v1690zM381 1522v-1354h188q185 0 338 87t243 243t91 348q0 191 -90 346.5t-243.5 242.5t-338.5 87h-188zM342 2126l74 100l313 -229
l313 229l74 -100l-387 -285z" />
    <glyph glyph-name="dcaron" unicode="&#x10f;" 
d="M111 524q0 157 68 284.5t188 200t268 72.5q136 0 246 -62t174 -171v913h180v-1761h-180v207q-64 -111 -174.5 -175.5t-245.5 -64.5q-148 0 -268 72.5t-188 200t-68 284.5zM299 524q0 -175 107.5 -288t273.5 -113t273.5 113t107.5 288q0 176 -108 289t-273 113
q-164 0 -272.5 -113t-108.5 -289zM1475 1690q42 0 72 -30.5t30 -72.5q0 -94 -42.5 -172t-109.5 -133l-39 31q1 2 9 14.5t13.5 21.5t14.5 26.5t15 33.5t12 38t8 44q-36 6 -61 33t-25 63q0 41 31 72t72 31z" />
    <glyph glyph-name="Dcroat" unicode="&#x110;" horiz-adv-x="1550" 
d="M193 1690h395q172 0 328 -63.5t271.5 -173.5t184 -268.5t68.5 -338.5q0 -181 -68 -340t-183.5 -269t-271.5 -173.5t-329 -63.5h-395v768h-168v154h168v768zM381 1522v-600h420v-154h-420v-600h188q185 0 338 87t243 243t91 348q0 191 -90 346.5t-243.5 242.5t-338.5 87
h-188z" />
    <glyph glyph-name="dcroat" unicode="&#x111;" 
d="M111 524q0 157 68 284.5t188 200t268 72.5q136 0 246 -62t174 -171v495h-391v121h391v297h180v-297h170v-121h-170v-1343h-180v207q-64 -111 -174.5 -175.5t-245.5 -64.5q-148 0 -268 72.5t-188 200t-68 284.5zM299 524q0 -175 107.5 -288t273.5 -113t273.5 113
t107.5 288q0 176 -108 289t-273 113q-164 0 -272.5 -113t-108.5 -289z" />
    <glyph glyph-name="Emacron" unicode="&#x112;" horiz-adv-x="1183" 
d="M193 1690h868v-166h-680v-594h655v-166h-655v-598h680v-166h-868v1690zM209 2064h835v-127h-835v127z" />
    <glyph glyph-name="emacron" unicode="&#x113;" horiz-adv-x="1310" 
d="M104 524q0 114 44 217t118 177.5t176.5 118.5t214.5 44q114 0 215 -41t174.5 -113t116.5 -176.5t43 -226.5v-20h-919q0 -116 54.5 -206t143.5 -136.5t195 -46.5q231 0 360 182l134 -70q-78 -129 -208.5 -194.5t-295.5 -65.5q-156 0 -285.5 72.5t-205 200.5t-75.5 284z
M291 616h739q-15 145 -118 231.5t-250 86.5q-151 0 -254.5 -88t-116.5 -230zM238 1425h835v-127h-835v127z" />
    <glyph glyph-name="Edotaccent" unicode="&#x116;" horiz-adv-x="1183" 
d="M193 1690h868v-166h-680v-594h655v-166h-655v-598h680v-166h-868v1690zM627 2091q43 0 73.5 -30.5t30.5 -73.5t-30.5 -74t-73.5 -31t-74 31t-31 74t31 73.5t74 30.5z" />
    <glyph glyph-name="edotaccent" unicode="&#x117;" horiz-adv-x="1310" 
d="M104 524q0 114 44 217t118 177.5t176.5 118.5t214.5 44q114 0 215 -41t174.5 -113t116.5 -176.5t43 -226.5v-20h-919q0 -116 54.5 -206t143.5 -136.5t195 -46.5q231 0 360 182l134 -70q-78 -129 -208.5 -194.5t-295.5 -65.5q-156 0 -285.5 72.5t-205 200.5t-75.5 284z
M291 616h739q-15 145 -118 231.5t-250 86.5q-151 0 -254.5 -88t-116.5 -230zM655 1452q43 0 74 -30.5t31 -73.5t-31 -74t-74 -31t-73.5 31t-30.5 74t30.5 73.5t73.5 30.5z" />
    <glyph glyph-name="Eogonek" unicode="&#x118;" horiz-adv-x="1183" 
d="M193 1690h868v-166h-680v-594h655v-166h-655v-598h680v-166h-236q-54 -62 -100.5 -147.5t-46.5 -161.5q0 -66 43.5 -105t109.5 -39q103 0 191 97l80 -60q-4 -6 -11.5 -16t-33.5 -35t-56 -44.5t-78.5 -35.5t-101.5 -16q-111 0 -184.5 66t-73.5 173q0 125 164 324h-534
v1690z" />
    <glyph glyph-name="eogonek" unicode="&#x119;" horiz-adv-x="1310" 
d="M104 524q0 114 44 217t118 177.5t176.5 118.5t214.5 44q114 0 215 -41t174.5 -113t116.5 -176.5t43 -226.5v-20h-919q0 -116 54.5 -206t143.5 -136.5t195 -46.5q231 0 360 182l134 -70q-126 -205 -373 -247q-129 -166 -129 -289q0 -66 43.5 -105t109.5 -39q103 0 191 97
l80 -60q-4 -6 -11.5 -16t-33.5 -35t-56 -44.5t-78.5 -35.5t-101.5 -16q-111 0 -184.5 66t-73.5 173q0 116 137 291h-24q-156 0 -285.5 72.5t-205 200.5t-75.5 284zM291 616h739q-15 145 -118 231.5t-250 86.5q-151 0 -254.5 -88t-116.5 -230z" />
    <glyph glyph-name="Ecaron" unicode="&#x11a;" horiz-adv-x="1183" 
d="M193 1690h868v-166h-680v-594h655v-166h-655v-598h680v-166h-868v1690zM240 2126l73 100l314 -229l313 229l74 -100l-387 -285z" />
    <glyph glyph-name="ecaron" unicode="&#x11b;" horiz-adv-x="1310" 
d="M104 524q0 114 44 217t118 177.5t176.5 118.5t214.5 44q114 0 215 -41t174.5 -113t116.5 -176.5t43 -226.5v-20h-919q0 -116 54.5 -206t143.5 -136.5t195 -46.5q231 0 360 182l134 -70q-78 -129 -208.5 -194.5t-295.5 -65.5q-156 0 -285.5 72.5t-205 200.5t-75.5 284z
M291 616h739q-15 145 -118 231.5t-250 86.5q-151 0 -254.5 -88t-116.5 -230zM268 1487l74 100l313 -229l314 229l73 -100l-387 -285z" />
    <glyph glyph-name="Gcommaaccent" unicode="&#x122;" horiz-adv-x="1816" 
d="M934 -82q42 0 72 -30t30 -72q0 -180 -151 -305l-39 30q1 2 9 14.5t13.5 21.5t14.5 26.5t15 33.5t12 38t8 44q-36 6 -61.5 33.5t-25.5 63.5q0 41 31 71.5t72 30.5zM111 842q0 180 62.5 342t170.5 280t261.5 187t328.5 69q413 0 651 -288l-123 -136q-190 254 -520 254
q-176 0 -321 -94.5t-227.5 -257t-82.5 -356.5q0 -190 84.5 -352t230 -256.5t316.5 -94.5q111 0 215 36.5t185.5 101.5t130.5 163.5t49 212.5v49h-588v152h780v-164q0 -158 -60.5 -293.5t-164.5 -229t-248 -147t-307 -53.5q-168 0 -320 69.5t-262.5 186.5t-175.5 279t-65 340
z" />
    <glyph glyph-name="gcommaaccent" unicode="&#x123;" 
d="M111 524q0 157 68 284.5t188 200t268 72.5q136 0 246 -62t174 -171v201h180v-1078q0 -255 -151.5 -394.5t-421.5 -139.5q-197 0 -338 77t-207 228l149 70q44 -96 148 -159t248 -63q174 0 283.5 104t109.5 277v236q-64 -111 -174.5 -175.5t-245.5 -64.5q-148 0 -268 72.5
t-188 200t-68 284.5zM299 524q0 -175 107.5 -288t273.5 -113t273.5 113t107.5 288q0 176 -108 289t-273 113q-164 0 -272.5 -113t-108.5 -289zM674 1243q-42 0 -72.5 30.5t-30.5 72.5q0 94 42.5 172t109.5 133l39 -31q-1 -2 -9 -14.5t-13.5 -21.5t-14.5 -26.5t-15 -33.5
t-12 -38t-8 -44q36 -6 61 -33t25 -63q0 -41 -30.5 -72t-71.5 -31z" />
    <glyph glyph-name="Imacron" unicode="&#x12a;" horiz-adv-x="573" 
d="M193 1690h188v-1690h-188v1690zM-131 2064h836v-127h-836v127z" />
    <glyph glyph-name="imacron" unicode="&#x12b;" horiz-adv-x="548" 
d="M184 1049h181v-1049h-181v1049zM-143 1425h835v-127h-835v127z" />
    <glyph glyph-name="Iogonek" unicode="&#x12e;" horiz-adv-x="573" 
d="M72 -324q0 125 164 324h-43v1690h188v-1690h-47q-55 -63 -101.5 -148t-46.5 -161q0 -66 44 -105t110 -39q102 0 190 97l80 -60q-4 -6 -11 -16t-33 -35t-56 -44.5t-78.5 -35.5t-101.5 -16q-111 0 -184.5 66t-73.5 173z" />
    <glyph glyph-name="iogonek" unicode="&#x12f;" horiz-adv-x="548" 
d="M59 -324q0 125 164 324h-39v1049h181v-1049h-43q-55 -63 -101.5 -148t-46.5 -161q0 -66 44 -105t110 -39q102 0 190 97l80 -60q-4 -6 -11.5 -16t-33.5 -35t-56 -44.5t-78.5 -35.5t-101.5 -16q-111 0 -184.5 66t-73.5 173zM274 1501q51 0 87 -36.5t36 -88.5q0 -51 -36 -87
t-87 -36q-52 0 -87 36t-35 87q0 53 35 89t87 36z" />
    <glyph glyph-name="dotlessi" unicode="&#x131;" horiz-adv-x="548" 
d="M184 1049h181v-1049h-181v1049z" />
    <glyph glyph-name="Kcommaaccent" unicode="&#x136;" horiz-adv-x="1413" 
d="M193 1690h188v-789l739 789h228l-758 -811l844 -879h-260l-713 741l-80 -86v-655h-188v1690zM725 -82q42 0 72 -30t30 -72q0 -180 -151 -305l-39 30q1 2 9 14.5t13.5 21.5t14.5 26.5t15 33.5t12 38t8 44q-36 6 -61 33.5t-25 63.5q0 41 30.5 71.5t71.5 30.5z" />
    <glyph glyph-name="kcommaaccent" unicode="&#x137;" horiz-adv-x="1048" 
d="M184 1761h181v-1120l362 408h231l-385 -424l519 -625h-228l-405 498l-94 -103v-395h-181v1761zM602 -82q42 0 72.5 -30t30.5 -72q0 -94 -42.5 -172t-109.5 -133l-39 30q1 2 9 14.5t13.5 21.5t14.5 26.5t15 33.5t12 38t8 44q-36 6 -61 33.5t-25 63.5q0 41 30.5 71.5
t71.5 30.5z" />
    <glyph glyph-name="Lacute" unicode="&#x139;" horiz-adv-x="1136" 
d="M193 1690h188v-1524h688v-166h-876v1690zM223 1933l305 248l101 -133l-342 -205z" />
    <glyph glyph-name="lacute" unicode="&#x13a;" horiz-adv-x="548" 
d="M184 1761h181v-1761h-181v1761zM211 2003l305 248l100 -133l-342 -205z" />
    <glyph glyph-name="Lcommaaccent" unicode="&#x13b;" horiz-adv-x="1136" 
d="M193 1690h188v-1524h688v-166h-876v1690zM618 -82q42 0 72.5 -30t30.5 -72q0 -94 -42.5 -172t-109.5 -133l-39 30q1 2 9 14.5t13.5 21.5t14.5 26.5t15 33.5t12 38t8 44q-36 6 -61 33.5t-25 63.5q0 41 30.5 71.5t71.5 30.5z" />
    <glyph glyph-name="lcommaaccent" unicode="&#x13c;" horiz-adv-x="548" 
d="M184 1761h181v-1761h-181v1761zM272 -82q42 0 72.5 -30t30.5 -72q0 -94 -42.5 -172t-109.5 -133l-39 30q1 2 9 14.5t13.5 21.5t14.5 26.5t15 33.5t12 38t8 44q-36 6 -61 33.5t-25 63.5q0 41 30.5 71.5t71.5 30.5z" />
    <glyph glyph-name="Lcaron" unicode="&#x13d;" horiz-adv-x="1136" 
d="M193 1690h188v-1524h688v-166h-876v1690zM879 1690q42 0 72 -30.5t30 -72.5q0 -94 -42.5 -172t-109.5 -133l-38 31q1 1 9.5 14.5t13.5 22t14 26.5t14.5 33.5t11.5 37.5t8 44q-36 6 -61 33t-25 63q0 41 31 72t72 31z" />
    <glyph glyph-name="lcaron" unicode="&#x13e;" horiz-adv-x="548" 
d="M184 1761h181v-1761h-181v1761zM594 1690q42 0 72 -30.5t30 -72.5q0 -180 -151 -305l-39 31q1 2 9 14.5t13.5 21.5t14.5 26.5t15 33.5t12 38t8 44q-36 6 -61 33t-25 63q0 41 30.5 72t71.5 31z" />
    <glyph glyph-name="Lslash" unicode="&#x141;" horiz-adv-x="1136" 
d="M193 1690h188v-678l219 172v-154l-219 -172v-692h688v-166h-876v709l-166 -129v153l166 129v828z" />
    <glyph glyph-name="lslash" unicode="&#x142;" horiz-adv-x="548" 
d="M184 1761h181v-669l180 141v-154l-180 -141v-938h-181v797l-180 -142v154l180 141v811z" />
    <glyph glyph-name="Nacute" unicode="&#x143;" horiz-adv-x="1638" 
d="M193 1690h188l876 -1371v1371h189v-1690h-189l-876 1370v-1370h-188v1690zM922 2181l100 -133l-342 -205l-64 90z" />
    <glyph glyph-name="nacute" unicode="&#x144;" horiz-adv-x="1282" 
d="M184 1049h181v-138q49 81 140 125.5t183 44.5q195 0 310.5 -108t115.5 -303v-670h-180v621q0 147 -71.5 232t-209.5 85q-124 0 -206 -82.5t-82 -185.5v-670h-181v1049zM791 1540l100 -133l-342 -205l-64 90z" />
    <glyph glyph-name="Ncommaaccent" unicode="&#x145;" horiz-adv-x="1638" 
d="M193 1690h188l876 -1371v1371h189v-1690h-189l-876 1370v-1370h-188v1690zM819 -82q43 0 73 -30t30 -72q0 -94 -42.5 -172t-109.5 -133l-39 30q1 2 9 14.5t13.5 21.5t14.5 26.5t15 33.5t12 38t8 44q-36 6 -61 33.5t-25 63.5q0 41 30.5 71.5t71.5 30.5z" />
    <glyph glyph-name="ncommaaccent" unicode="&#x146;" horiz-adv-x="1282" 
d="M184 1049h181v-138q49 81 140 125.5t183 44.5q195 0 310.5 -108t115.5 -303v-670h-180v621q0 147 -71.5 232t-209.5 85q-124 0 -206 -82.5t-82 -185.5v-670h-181v1049zM649 -82q43 0 73 -30t30 -72q0 -94 -42.5 -172t-109.5 -133l-39 30q1 2 9 14.5t13.5 21.5t14.5 26.5
t15 33.5t12 38t8 44q-36 6 -61 33.5t-25 63.5q0 41 30.5 71.5t71.5 30.5z" />
    <glyph glyph-name="Ncaron" unicode="&#x147;" horiz-adv-x="1638" 
d="M193 1690h188l876 -1371v1371h189v-1690h-189l-876 1370v-1370h-188v1690zM432 2126l74 100l313 -229l314 229l73 -100l-387 -285z" />
    <glyph glyph-name="ncaron" unicode="&#x148;" horiz-adv-x="1282" 
d="M184 1049h181v-138q49 81 140 125.5t183 44.5q195 0 310.5 -108t115.5 -303v-670h-180v621q0 147 -71.5 232t-209.5 85q-124 0 -206 -82.5t-82 -185.5v-670h-181v1049zM262 1487l74 100l313 -229l314 229l73 -100l-387 -285z" />
    <glyph glyph-name="Omacron" unicode="&#x14c;" horiz-adv-x="1925" 
d="M545 2064h835v-127h-835v127zM313 844q0 -188 82.5 -346.5t232.5 -253t335 -94.5t335 94.5t232 253t82 346.5t-82 346.5t-232 253t-335 94.5t-335 -94.5t-232.5 -253t-82.5 -346.5zM111 844q0 240 111 440.5t307 318t434 117.5t434 -117.5t307 -318t111 -440.5
q0 -179 -65.5 -341t-178 -280t-271.5 -187t-337 -69t-337 69t-271.5 187t-178 280t-65.5 341z" />
    <glyph glyph-name="omacron" unicode="&#x14d;" horiz-adv-x="1382" 
d="M272 1425h836v-127h-836v127zM289 524q0 -175 113 -288t288 -113t288.5 113t113.5 288t-113.5 288.5t-288.5 113.5t-288 -113.5t-113 -288.5zM104 524q0 163 77 290.5t210.5 197t298.5 69.5t298.5 -69.5t210.5 -197t77 -290.5t-77 -290.5t-210.5 -197t-298.5 -69.5
t-298.5 69.5t-210.5 197t-77 290.5z" />
    <glyph glyph-name="Ohungarumlaut" unicode="&#x150;" horiz-adv-x="1925" 
d="M627 1948l305 247l100 -133l-342 -204zM1018 1948l303 247l100 -133l-340 -204zM313 844q0 -188 82.5 -346.5t232.5 -253t335 -94.5t335 94.5t232 253t82 346.5t-82 346.5t-232 253t-335 94.5t-335 -94.5t-232.5 -253t-82.5 -346.5zM111 844q0 240 111 440.5t307 318
t434 117.5t434 -117.5t307 -318t111 -440.5q0 -179 -65.5 -341t-178 -280t-271.5 -187t-337 -69t-337 69t-271.5 187t-178 280t-65.5 341z" />
    <glyph glyph-name="ohungarumlaut" unicode="&#x151;" horiz-adv-x="1382" 
d="M334 1292l305 248l100 -133l-342 -205zM725 1292l303 248l100 -133l-340 -205zM289 524q0 -175 113 -288t288 -113t288.5 113t113.5 288t-113.5 288.5t-288.5 113.5t-288 -113.5t-113 -288.5zM104 524q0 163 77 290.5t210.5 197t298.5 69.5t298.5 -69.5t210.5 -197
t77 -290.5t-77 -290.5t-210.5 -197t-298.5 -69.5t-298.5 69.5t-210.5 197t-77 290.5z" />
    <glyph glyph-name="OE" unicode="&#x152;" horiz-adv-x="1984" 
d="M104 844q0 157 48 293t133.5 236.5t201 172.5t252.5 108t285 36h838v-166h-680v-594h655v-166h-655v-598h680v-166h-910q-178 0 -335.5 64.5t-270 176t-177.5 268.5t-65 335zM307 844q0 -296 192 -485t494 -189v1350q-142 0 -268.5 -50.5t-218.5 -139t-145.5 -215
t-53.5 -271.5z" />
    <glyph glyph-name="oe" unicode="&#x153;" horiz-adv-x="2289" 
d="M690 1081q169 0 291.5 -75t185.5 -209q69 130 193 207t276 77q114 0 215 -41t174.5 -113t116.5 -176.5t43 -226.5v-20h-919q0 -116 54.5 -206t143.5 -136.5t195 -46.5q231 0 360 182l133 -70q-78 -129 -208 -194.5t-295 -65.5q-159 0 -285 76t-195 207
q-61 -133 -184.5 -208t-294.5 -75q-257 0 -421.5 156.5t-164.5 400.5q0 122 45 226t123 176.5t186.5 113.5t231.5 41zM690 926q-174 0 -287.5 -114t-113.5 -288q0 -175 112.5 -288t288.5 -113q177 0 289.5 113t112.5 288q0 174 -114 288t-288 114zM1270 616h739
q-15 147 -119.5 242.5t-249.5 95.5q-149 0 -252.5 -97t-117.5 -241z" />
    <glyph glyph-name="Racute" unicode="&#x154;" horiz-adv-x="1320" 
d="M193 1690h462q251 0 398 -128.5t147 -355.5q0 -201 -118 -332.5t-322 -156.5l561 -717h-240l-534 702h-166v-702h-188v1690zM381 1538v-680h225q182 0 291 92t109 252t-108.5 248t-291.5 88h-225zM451 1917l305 248l100 -133l-342 -205z" />
    <glyph glyph-name="racute" unicode="&#x155;" horiz-adv-x="856" 
d="M322 1292l305 248l100 -133l-342 -205zM184 1049h181v-154q35 72 118.5 129t190.5 57q26 0 51 -3t48.5 -9t36.5 -10t33 -11.5t21 -7.5l-76 -151q-3 1 -17 6.5t-26 9.5t-30.5 9t-40.5 7.5t-45 2.5q-68 0 -122 -29t-83 -71.5t-44 -82t-15 -69.5v-672h-181v1049z" />
    <glyph glyph-name="Rcommaaccent" unicode="&#x156;" horiz-adv-x="1320" 
d="M717 -82q42 0 72 -30t30 -72q0 -180 -151 -305l-39 30q1 1 9.5 14.5t13.5 22t14 26.5t14.5 33.5t11.5 37.5t8 44q-36 6 -61 33.5t-25 63.5q0 41 31 71.5t72 30.5zM193 1690h462q251 0 398 -128.5t147 -355.5q0 -201 -118 -332.5t-322 -156.5l561 -717h-240l-534 702h-166
v-702h-188v1690zM381 1538v-680h225q182 0 291 92t109 252t-108.5 248t-291.5 88h-225z" />
    <glyph glyph-name="rcommaaccent" unicode="&#x157;" horiz-adv-x="856" 
d="M274 -82q42 0 72.5 -30t30.5 -72q0 -94 -42.5 -172t-109.5 -133l-39 30q1 2 9 14.5t13.5 21.5t14.5 26.5t15 33.5t12 38t8 44q-36 6 -61 33.5t-25 63.5q0 41 30.5 71.5t71.5 30.5zM184 1049h181v-154q35 72 118.5 129t190.5 57q26 0 51 -3t48.5 -9t36.5 -10t33 -11.5
t21 -7.5l-76 -151q-3 1 -17 6.5t-26 9.5t-30.5 9t-40.5 7.5t-45 2.5q-68 0 -122 -29t-83 -71.5t-44 -82t-15 -69.5v-672h-181v1049z" />
    <glyph glyph-name="Rcaron" unicode="&#x158;" horiz-adv-x="1320" 
d="M193 1690h462q251 0 398 -128.5t147 -355.5q0 -201 -118 -332.5t-322 -156.5l561 -717h-240l-534 702h-166v-702h-188v1690zM381 1538v-680h225q182 0 291 92t109 252t-108.5 248t-291.5 88h-225zM238 2126l73 100l314 -229l313 229l74 -100l-387 -285z" />
    <glyph glyph-name="rcaron" unicode="&#x159;" horiz-adv-x="856" 
d="M184 1049h181v-154q35 72 118.5 129t190.5 57q26 0 51 -3t48.5 -9t36.5 -10t33 -11.5t21 -7.5l-76 -151q-3 1 -17 6.5t-26 9.5t-30.5 9t-40.5 7.5t-45 2.5q-68 0 -122 -29t-83 -71.5t-44 -82t-15 -69.5v-672h-181v1049zM137 1487l74 100l313 -229l314 229l73 -100
l-387 -285z" />
    <glyph glyph-name="Sacute" unicode="&#x15a;" horiz-adv-x="1337" 
d="M539 1933l305 248l100 -133l-342 -205zM221 1253q0 135 67 243.5t176 166t236 57.5q290 0 437 -233l-144 -90q-26 46 -58 77t-89 52.5t-133 21.5q-147 0 -234.5 -86t-87.5 -202q0 -53 23.5 -97.5t68.5 -79t97 -60t122 -50.5q79 -28 141 -55.5t125.5 -62.5t109 -75t82 -88
t55 -107.5t18.5 -127.5q0 -158 -73 -270.5t-194.5 -166t-279.5 -53.5q-199 0 -342 82t-219 227l156 97q54 -104 162.5 -168t230.5 -64q72 0 137.5 18t120.5 53.5t88 96.5t33 140q0 66 -31.5 120.5t-96 100.5t-142 82t-189.5 77q-373 136 -373 424z" />
    <glyph glyph-name="sacute" unicode="&#x15b;" horiz-adv-x="974" 
d="M336 1294l305 248l100 -133l-342 -205zM518 1081q120 0 196.5 -48.5t106.5 -117.5l-112 -71q-22 44 -72 74t-119 30q-98 0 -155.5 -40.5t-57.5 -104.5q0 -59 59 -99t177 -75q342 -104 342 -338q0 -74 -24.5 -131.5t-64 -93t-94 -58.5t-109 -32t-114.5 -9q-290 0 -383 228
l123 77q31 -76 102 -122t158 -46q44 0 84.5 9t77 29t58.5 57.5t22 87.5q0 41 -24 76.5t-69.5 63.5t-96 48.5t-117.5 40.5q-48 14 -90 36t-81 54.5t-62 81t-23 107.5q0 127 97.5 206.5t264.5 79.5z" />
    <glyph glyph-name="Scedilla" unicode="&#x15e;" horiz-adv-x="1337" 
d="M221 1253q0 135 67 243.5t176 166t236 57.5q290 0 437 -233l-144 -90q-26 46 -58 77t-89 52.5t-133 21.5q-147 0 -234.5 -86t-87.5 -202q0 -53 23.5 -97.5t68.5 -79t97 -60t122 -50.5q79 -28 141 -55.5t125.5 -62.5t109 -75t82 -88t55 -107.5t18.5 -127.5
q0 -155 -71 -266.5t-189 -166t-271 -57.5l-40 -125q20 4 61 4q90 0 157.5 -59t67.5 -154q0 -101 -73 -168t-201 -67q-98 0 -177 52t-108 106l86 59q24 -42 78 -76.5t121 -34.5q68 0 112.5 34t44.5 95t-42.5 99.5t-104.5 38.5q-82 0 -139 -37l-13 8l74 229q-169 17 -291 96.5
t-190 208.5l156 97q54 -104 162.5 -168t230.5 -64q72 0 137.5 18t120.5 53.5t88 96.5t33 140q0 66 -31.5 120.5t-96 100.5t-142 82t-189.5 77q-373 136 -373 424z" />
    <glyph glyph-name="scedilla" unicode="&#x15f;" horiz-adv-x="980" 
d="M354 -258l74 227q-251 17 -334 226l123 77q31 -76 102 -122t158 -46q44 0 84.5 9t77 29t58.5 57.5t22 87.5q0 41 -24 76.5t-69.5 63.5t-96 48.5t-117.5 40.5q-48 14 -90 36t-81 54.5t-62 81t-23 107.5q0 127 97.5 206.5t264.5 79.5q120 0 196.5 -48.5t106.5 -117.5
l-112 -71q-22 44 -72 74t-119 30q-98 0 -155.5 -40.5t-57.5 -104.5q0 -59 59 -99t177 -75q342 -104 342 -338q0 -68 -20.5 -122.5t-54.5 -90t-81.5 -59.5t-97 -35.5t-105.5 -14.5l-41 -127q20 4 62 4q90 0 157.5 -59t67.5 -154q0 -101 -73 -168t-201 -67q-98 0 -177 52
t-108 106l86 59q24 -42 78 -76.5t121 -34.5q68 0 112.5 34t44.5 95t-42.5 99.5t-104.5 38.5q-82 0 -139 -37z" />
    <glyph glyph-name="Scaron" unicode="&#x160;" horiz-adv-x="1337" 
d="M313 2126l74 100l313 -229l314 229l73 -100l-387 -285zM221 1253q0 135 67 243.5t176 166t236 57.5q290 0 437 -233l-144 -90q-26 46 -58 77t-89 52.5t-133 21.5q-147 0 -234.5 -86t-87.5 -202q0 -53 23.5 -97.5t68.5 -79t97 -60t122 -50.5q79 -28 141 -55.5t125.5 -62.5
t109 -75t82 -88t55 -107.5t18.5 -127.5q0 -158 -73 -270.5t-194.5 -166t-279.5 -53.5q-199 0 -342 82t-219 227l156 97q54 -104 162.5 -168t230.5 -64q72 0 137.5 18t120.5 53.5t88 96.5t33 140q0 66 -31.5 120.5t-96 100.5t-142 82t-189.5 77q-373 136 -373 424z" />
    <glyph glyph-name="scaron" unicode="&#x161;" horiz-adv-x="980" 
d="M518 1081q120 0 196.5 -48.5t106.5 -117.5l-112 -71q-22 44 -72 74t-119 30q-98 0 -155.5 -40.5t-57.5 -104.5q0 -59 59 -99t177 -75q342 -104 342 -338q0 -74 -24.5 -131.5t-64 -93t-94 -58.5t-109 -32t-114.5 -9q-290 0 -383 228l123 77q31 -76 102 -122t158 -46
q44 0 84.5 9t77 29t58.5 57.5t22 87.5q0 41 -24 76.5t-69.5 63.5t-96 48.5t-117.5 40.5q-48 14 -90 36t-81 54.5t-62 81t-23 107.5q0 127 97.5 206.5t264.5 79.5zM131 1487l74 100l313 -229l313 229l74 -100l-387 -285z" />
    <glyph glyph-name="Tcommaaccent" unicode="&#x162;" horiz-adv-x="1200" 
d="M6 1690h1188v-166h-498v-1524h-188v1524h-502v166zM602 -106q42 0 72.5 -30.5t30.5 -72.5q0 -94 -42.5 -172t-109.5 -133l-39 31q1 2 9 14.5t13.5 21.5t14.5 26.5t15 33.5t12 38t8 44q-36 6 -61 33t-25 63q0 41 30.5 72t71.5 31z" />
    <glyph glyph-name="tcommaaccent" unicode="&#x163;" horiz-adv-x="686" 
d="M98 1049h113v391h180v-391h256v-138h-256v-600q0 -93 28.5 -138.5t94.5 -45.5q27 0 53 8.5t39 17.5l12 9l46 -146q-8 -5 -23.5 -13.5t-65.5 -22t-102 -13.5q-262 0 -262 318v626h-113v138zM430 -82q42 0 72 -30t30 -72q0 -180 -151 -305l-39 30q1 2 9 14.5t13.5 21.5
t14.5 26.5t15 33.5t12 38t8 44q-36 6 -61 33.5t-25 63.5q0 41 30.5 71.5t71.5 30.5z" />
    <glyph glyph-name="Tcaron" unicode="&#x164;" horiz-adv-x="1200" 
d="M6 1690h1188v-166h-498v-1524h-188v1524h-502v166zM215 2126l74 100l313 -229l313 229l74 -100l-387 -285z" />
    <glyph glyph-name="tcaron" unicode="&#x165;" horiz-adv-x="686" 
d="M98 1049h113v391h180v-391h256v-138h-256v-600q0 -93 28.5 -138.5t94.5 -45.5q27 0 53 8.5t39 17.5l12 9l46 -146q-8 -5 -23.5 -13.5t-65.5 -22t-102 -13.5q-262 0 -262 318v626h-113v138zM694 1690q42 0 72.5 -30.5t30.5 -72.5q0 -94 -42.5 -172t-109.5 -133l-39 31
q1 2 9 14.5t13.5 21.5t14.5 26.5t15 33.5t12 38t8 44q-36 6 -61 33t-25 63q0 41 30.5 72t71.5 31z" />
    <glyph glyph-name="Umacron" unicode="&#x16a;" horiz-adv-x="1536" 
d="M1176 1690h188v-1086q0 -314 -152.5 -475.5t-443.5 -161.5t-443.5 161.5t-152.5 475.5v1086h188v-1041q0 -254 101 -374.5t307 -120.5t307 120.5t101 374.5v1041zM350 2064h836v-127h-836v127z" />
    <glyph glyph-name="umacron" unicode="&#x16b;" horiz-adv-x="1257" 
d="M168 1049h180v-576q0 -105 18 -175.5t55.5 -109.5t87 -55t120.5 -16q57 0 99 9.5t77 33.5t57.5 64.5t34.5 102t12 146.5v576h181v-611q0 -254 -111.5 -362.5t-349.5 -108.5t-349.5 108.5t-111.5 362.5v611zM211 1425h836v-127h-836v127z" />
    <glyph glyph-name="Uring" unicode="&#x16e;" horiz-adv-x="1536" 
d="M1176 1690h188v-1086q0 -314 -152.5 -475.5t-443.5 -161.5t-443.5 161.5t-152.5 475.5v1086h188v-1041q0 -254 101 -374.5t307 -120.5t307 120.5t101 374.5v1041zM516 2071q0 96 73 158.5t179 62.5q107 0 179.5 -62.5t72.5 -158.5q0 -98 -71 -161t-181 -63
q-112 0 -182 62.5t-70 161.5zM631 2071q0 -56 38 -91.5t99 -35.5t99 35.5t38 91.5q0 54 -39 89t-98 35t-98 -35t-39 -89z" />
    <glyph glyph-name="uring" unicode="&#x16f;" horiz-adv-x="1257" 
d="M168 1049h180v-576q0 -105 18 -175.5t55.5 -109.5t87 -55t120.5 -16q57 0 99 9.5t77 33.5t57.5 64.5t34.5 102t12 146.5v576h181v-611q0 -254 -111.5 -362.5t-349.5 -108.5t-349.5 108.5t-111.5 362.5v611zM377 1497q0 96 73 158.5t179 62.5q107 0 179.5 -62.5
t72.5 -158.5q0 -98 -71 -160.5t-181 -62.5q-112 0 -182 62t-70 161zM492 1497q0 -56 38 -91.5t99 -35.5t99 35.5t38 91.5q0 54 -39 89.5t-98 35.5t-98 -35.5t-39 -89.5z" />
    <glyph glyph-name="Uhungarumlaut" unicode="&#x170;" horiz-adv-x="1536" 
d="M1176 1690h188v-1086q0 -314 -152.5 -475.5t-443.5 -161.5t-443.5 161.5t-152.5 475.5v1086h188v-1041q0 -254 101 -374.5t307 -120.5t307 120.5t101 374.5v1041zM432 1948l305 247l101 -133l-342 -204zM823 1948l303 247l101 -133l-340 -204z" />
    <glyph glyph-name="uhungarumlaut" unicode="&#x171;" horiz-adv-x="1257" 
d="M168 1049h180v-576q0 -105 18 -175.5t55.5 -109.5t87 -55t120.5 -16q57 0 99 9.5t77 33.5t57.5 64.5t34.5 102t12 146.5v576h181v-611q0 -254 -111.5 -362.5t-349.5 -108.5t-349.5 108.5t-111.5 362.5v611zM272 1292l306 248l100 -133l-342 -205zM664 1292l303 248
l100 -133l-340 -205z" />
    <glyph glyph-name="Uogonek" unicode="&#x172;" horiz-adv-x="1536" 
d="M549 -324q0 115 141 295q-255 22 -386.5 181.5t-131.5 451.5v1086h188v-1041q0 -254 101 -374.5t307 -120.5t307 120.5t101 374.5v1041h188v-1086q0 -309 -148 -470.5t-432 -166.5q-48 -62 -84 -136.5t-36 -139.5q0 -66 43.5 -105t109.5 -39q103 0 191 97l79 -60
q-4 -6 -11 -16t-33 -35t-56 -44.5t-78.5 -35.5t-101.5 -16q-111 0 -184.5 66t-73.5 173z" />
    <glyph glyph-name="uogonek" unicode="&#x173;" horiz-adv-x="1259" 
d="M412 -324q0 117 139 295q-196 15 -288.5 125t-92.5 342v611h180v-576q0 -105 18 -175.5t55.5 -109.5t87 -55t120.5 -16q57 0 99 9.5t77 33.5t57.5 64.5t34.5 102t12 146.5v576h181v-611q0 -249 -108.5 -358.5t-336.5 -112.5q-49 -62 -85 -136.5t-36 -139.5q0 -66 44 -105
t110 -39q102 0 190 97l80 -60q-4 -6 -11 -16t-33 -35t-56 -44.5t-78.5 -35.5t-101.5 -16q-111 0 -184.5 66t-73.5 173z" />
    <glyph glyph-name="Ydieresis" unicode="&#x178;" horiz-adv-x="1318" 
d="M-20 1690h227l452 -756l453 756h227l-585 -955v-735h-189v735zM420 2175q43 0 73.5 -30.5t30.5 -73.5t-30.5 -74t-73.5 -31t-74 31t-31 74t31 73.5t74 30.5zM899 2175q43 0 74 -30.5t31 -73.5t-31 -74t-74 -31t-73.5 31t-30.5 74t30.5 73.5t73.5 30.5z" />
    <glyph glyph-name="Zacute" unicode="&#x179;" horiz-adv-x="1552" 
d="M190 1690h1289l-1067 -1520h1009v-170h-1347l1067 1520h-951v170zM692 1931l305 248l101 -133l-342 -205z" />
    <glyph glyph-name="zacute" unicode="&#x17a;" horiz-adv-x="1153" 
d="M127 1049h979l-739 -904h714v-145h-1034l739 903h-659v146zM455 1292l305 248l100 -133l-342 -205z" />
    <glyph glyph-name="Zdotaccent" unicode="&#x17b;" horiz-adv-x="1552" 
d="M190 1690h1289l-1067 -1520h1009v-170h-1347l1067 1520h-951v170zM834 2091q43 0 73.5 -30.5t30.5 -73.5t-30.5 -74t-73.5 -31t-74 31t-31 74t31 73.5t74 30.5z" />
    <glyph glyph-name="zdotaccent" unicode="&#x17c;" horiz-adv-x="1153" 
d="M127 1049h979l-739 -904h714v-145h-1034l739 903h-659v146zM616 1536q43 0 74 -30.5t31 -73.5t-31 -74t-74 -31t-73.5 31t-30.5 74t30.5 73.5t73.5 30.5z" />
    <glyph glyph-name="Zcaron" unicode="&#x17d;" horiz-adv-x="1552" 
d="M190 1690h1289l-1067 -1520h1009v-170h-1347l1067 1520h-951v170zM446 2126l74 100l314 -229l313 229l74 -100l-387 -285z" />
    <glyph glyph-name="zcaron" unicode="&#x17e;" horiz-adv-x="1153" 
d="M127 1049h979l-739 -904h714v-145h-1034l739 903h-659v146zM227 1487l74 100l313 -229l314 229l73 -100l-387 -285z" />
    <glyph glyph-name="Scommaaccent" unicode="&#x218;" horiz-adv-x="1337" 
d="M686 -82q42 0 72 -30t30 -72q0 -180 -151 -305l-39 30q1 2 9 14.5t13.5 21.5t14.5 26.5t15 33.5t12 38t8 44q-36 6 -61 33.5t-25 63.5q0 41 30.5 71.5t71.5 30.5zM221 1253q0 135 67 243.5t176 166t236 57.5q290 0 437 -233l-144 -90q-26 46 -58 77t-89 52.5t-133 21.5
q-147 0 -234.5 -86t-87.5 -202q0 -53 23.5 -97.5t68.5 -79t97 -60t122 -50.5q79 -28 141 -55.5t125.5 -62.5t109 -75t82 -88t55 -107.5t18.5 -127.5q0 -158 -73 -270.5t-194.5 -166t-279.5 -53.5q-199 0 -342 82t-219 227l156 97q54 -104 162.5 -168t230.5 -64
q72 0 137.5 18t120.5 53.5t88 96.5t33 140q0 66 -31.5 120.5t-96 100.5t-142 82t-189.5 77q-373 136 -373 424z" />
    <glyph glyph-name="scommaaccent" unicode="&#x219;" horiz-adv-x="980" 
d="M477 -82q43 0 73 -30t30 -72q0 -94 -42.5 -172t-109.5 -133l-39 30q1 2 9 14.5t13.5 21.5t14.5 26.5t15 33.5t12 38t8 44q-36 6 -61 33.5t-25 63.5q0 41 30.5 71.5t71.5 30.5zM518 1081q120 0 196.5 -48.5t106.5 -117.5l-112 -71q-22 44 -72 74t-119 30
q-98 0 -155.5 -40.5t-57.5 -104.5q0 -59 59 -99t177 -75q342 -104 342 -338q0 -74 -24.5 -131.5t-64 -93t-94 -58.5t-109 -32t-114.5 -9q-290 0 -383 228l123 77q31 -76 102 -122t158 -46q44 0 84.5 9t77 29t58.5 57.5t22 87.5q0 41 -24 76.5t-69.5 63.5t-96 48.5
t-117.5 40.5q-48 14 -90 36t-81 54.5t-62 81t-23 107.5q0 127 97.5 206.5t264.5 79.5z" />
    <glyph glyph-name="circumflex" unicode="&#x2c6;" horiz-adv-x="1089" 
d="M158 1436l387 284l387 -284l-74 -101l-313 230l-314 -230z" />
    <glyph glyph-name="caron" unicode="&#x2c7;" horiz-adv-x="978" 
d="M102 1620l74 100l313 -229l314 229l74 -100l-388 -285z" />
    <glyph glyph-name="breve" unicode="&#x2d8;" horiz-adv-x="1155" 
d="M872 1720l136 -32q-26 -150 -144 -243t-286 -93t-286.5 93t-144.5 243l136 32q8 -39 29.5 -79t56 -79t89.5 -63t120 -24q53 0 99 16.5t78.5 42t57.5 59t39 65t20 62.5z" />
    <glyph glyph-name="dotaccent" unicode="&#x2d9;" horiz-adv-x="462" 
d="M231 1536q43 0 74 -30.5t31 -73.5t-31 -74t-74 -31t-73.5 31t-30.5 74t30.5 73.5t73.5 30.5z" />
    <glyph glyph-name="ring" unicode="&#x2da;" horiz-adv-x="798" 
d="M147 1501q0 96 73 158.5t179 62.5q107 0 179.5 -62.5t72.5 -158.5q0 -98 -71 -160.5t-181 -62.5q-112 0 -182 62t-70 161zM262 1501q0 -56 38 -91.5t99 -35.5t99.5 35.5t38.5 91.5q0 54 -39.5 89.5t-98.5 35.5t-98 -35.5t-39 -89.5z" />
    <glyph glyph-name="ogonek" unicode="&#x2db;" horiz-adv-x="765" 
d="M170 -324q0 45 22 100.5t53 102.5t62.5 87.5t53.5 63.5l22 23l70 -30q-52 -55 -110 -151t-58 -181q0 -66 43.5 -105t109.5 -39q103 0 191 97l80 -60q-4 -6 -11.5 -16t-33.5 -35t-56 -44.5t-78.5 -35.5t-101.5 -16q-111 0 -184.5 66t-73.5 173z" />
    <glyph glyph-name="tilde" unicode="&#x2dc;" horiz-adv-x="1187" 
d="M63 1343q19 31 42 60t63.5 69.5t96 65.5t114.5 25q126 0 256 -99q91 -71 174 -71q125 0 215 159l100 -88q-19 -31 -42 -60t-63.5 -69.5t-95.5 -65t-114 -24.5q-127 0 -256 98q-92 72 -174 72q-124 0 -215 -160z" />
    <glyph glyph-name="hungarumlaut" unicode="&#x2dd;" horiz-adv-x="1099" 
d="M152 1473l305 247l100 -133l-342 -205zM543 1473l303 247l100 -133l-340 -205z" />
    <glyph glyph-name="endash" unicode="&#x2013;" horiz-adv-x="1181" 
d="M137 670h918v-154h-918v154z" />
    <glyph glyph-name="emdash" unicode="&#x2014;" horiz-adv-x="2070" 
d="M137 670h1807v-154h-1807v154z" />
    <glyph glyph-name="quoteleft" unicode="&#x2018;" horiz-adv-x="417" 
d="M88 1384q0 191 168 336l47 -37q-69 -99 -80 -192q40 -8 67 -38t27 -69q0 -47 -33.5 -81.5t-80.5 -34.5t-81 34.5t-34 81.5z" />
    <glyph glyph-name="quoteright" unicode="&#x2019;" horiz-adv-x="417" 
d="M215 1720q47 0 81 -33.5t34 -80.5q0 -195 -170 -338l-45 37q69 99 80 194q-40 6 -67.5 36t-27.5 71q0 47 34 80.5t81 33.5z" />
    <glyph glyph-name="quotesinglbase" unicode="&#x201a;" horiz-adv-x="434" 
d="M231 207q47 0 82 -35t35 -82q0 -102 -48 -187t-122 -149l-45 37q1 2 9.5 15t15 23t16 29t16 36.5t13 41.5t8.5 48q-39 8 -65.5 37.5t-26.5 68.5q0 47 33 82t79 35z" />
    <glyph glyph-name="quotedblleft" unicode="&#x201c;" horiz-adv-x="729" 
d="M399 1384q0 102 48 187.5t122 148.5l45 -37q-68 -97 -79 -192q40 -8 67 -38t27 -69q0 -47 -34 -81.5t-81 -34.5t-81 34.5t-34 81.5zM88 1384q0 191 168 336l47 -37q-69 -99 -80 -192q40 -8 67 -38t27 -69q0 -47 -33.5 -81.5t-80.5 -34.5t-81 34.5t-34 81.5z" />
    <glyph glyph-name="quotedblright" unicode="&#x201d;" horiz-adv-x="729" 
d="M317 1604q0 -102 -48 -187.5t-122 -148.5l-45 37q69 99 80 192q-40 8 -67 38t-27 69q0 47 34 81.5t81 34.5t80.5 -34.5t33.5 -81.5zM629 1604q0 -191 -168 -336l-47 37q69 99 80 192q-40 8 -67.5 38t-27.5 69q0 47 34 81.5t81 34.5t81 -34.5t34 -81.5z" />
    <glyph glyph-name="quotedblbase" unicode="&#x201e;" horiz-adv-x="720" 
d="M317 88q0 -102 -48 -187.5t-122 -148.5l-45 37q69 99 80 193q-40 8 -67 37.5t-27 68.5q0 47 34 82t81 35t80.5 -34.5t33.5 -82.5zM629 88q0 -191 -168 -336l-47 37q69 99 80 193q-40 8 -67.5 37.5t-27.5 68.5q0 47 34 82t81 35t81 -35t34 -82z" />
    <glyph glyph-name="dagger" unicode="&#x2020;" horiz-adv-x="878" 
d="M29 1266h329v495h160v-495h334v-148h-334v-1118h-160v1118h-329v148z" />
    <glyph glyph-name="daggerdbl" unicode="&#x2021;" horiz-adv-x="878" 
d="M29 1249h329v512h160v-512h334v-147h-334v-418h334v-147h-334v-537h-160v537h-329v147h329v418h-329v147z" />
    <glyph glyph-name="bullet" unicode="&#x2022;" horiz-adv-x="796" 
d="M397 928q83 0 141 -57.5t58 -139.5t-58 -139t-141 -57q-80 0 -138 57.5t-58 138.5t58 139t138 58z" />
    <glyph glyph-name="ellipsis" unicode="&#x2026;" horiz-adv-x="1308" 
d="M242 213q51 0 87 -36t36 -87t-36 -87t-87 -36t-87 36t-36 87t36 87t87 36zM1069 213q51 0 87 -36t36 -87t-36 -87t-87 -36t-87 36t-36 87t36 87t87 36zM655 213q51 0 87 -36t36 -87t-36 -87t-87 -36t-87 36t-36 87t36 87t87 36z" />
    <glyph glyph-name="perthousand" unicode="&#x2030;" horiz-adv-x="3037" 
d="M465 0l983 1690h125l-983 -1690h-125zM84 1315q0 178 120.5 290.5t305.5 112.5t305.5 -112.5t120.5 -290.5q0 -177 -122 -290.5t-304 -113.5t-304 113.5t-122 290.5zM213 1315q0 -129 85 -213t212 -84t212 84t85 213q0 131 -84 214t-213 83t-213 -83t-84 -214zM1098 371
q0 178 120.5 290.5t305.5 112.5t305.5 -112.5t120.5 -290.5q0 -177 -122 -290.5t-304 -113.5t-304 113.5t-122 290.5zM1227 371q0 -129 85 -213t212 -84t212 84t85 213q0 131 -84 214t-213 83t-213 -83t-84 -214zM2107 371q0 178 120.5 290.5t305.5 112.5t305.5 -112.5
t120.5 -290.5q0 -177 -122 -290.5t-304 -113.5t-304 113.5t-122 290.5zM2236 371q0 -129 85 -213t212 -84t212 84t85 213q0 131 -84 214t-213 83t-213 -83t-84 -214z" />
    <glyph glyph-name="guilsinglleft" unicode="&#x2039;" horiz-adv-x="614" 
d="M39 569l399 512l105 -82l-336 -430l336 -430l-105 -82z" />
    <glyph glyph-name="guilsinglright" unicode="&#x203a;" horiz-adv-x="614" 
d="M72 999l104 82l399 -512l-399 -512l-104 82l336 430z" />
    <glyph glyph-name="fraction" unicode="&#x2044;" horiz-adv-x="540" 
d="M-285 0l983 1690h127l-983 -1690h-127z" />
    <glyph glyph-name="Euro" unicode="&#x20ac;" horiz-adv-x="1693" 
d="M20 1073h179q78 283 319 465t541 182q184 0 325 -51t222 -121l-88 -159q-69 62 -184 103.5t-251 41.5q-236 0 -415.5 -128.5t-245.5 -332.5h874v-117h-915q-10 -62 -10 -110q0 -55 10 -117h915v-117h-874q63 -204 239 -331t422 -127q138 0 253 41.5t184 103.5l86 -160
q-78 -69 -219.5 -119.5t-327.5 -50.5q-310 0 -546.5 179.5t-313.5 463.5h-179v117h154q-8 49 -8 117q0 61 8 110h-154v117z" />
    <glyph glyph-name="trademark" unicode="&#x2122;" horiz-adv-x="1036" 
d="M37 1690h371v-54h-156v-475h-59v475h-156v54zM483 1690h62l149 -398l152 398h61l68 -529h-62l-53 420l-143 -393h-41l-146 393l-53 -420h-59zM483 1690h64l149 -398l150 398h63l64 -529h-58l-53 420l-145 -393h-41l-146 393l-53 -420h-59z" />
    <glyph glyph-name="minus" unicode="&#x2212;" horiz-adv-x="1265" 
d="M109 926h1048v-156h-1048v156z" />
    <glyph glyph-name="notequal" unicode="&#x2260;" horiz-adv-x="1265" 
d="M109 1137h573l178 307h127l-178 -307h348v-156h-440l-154 -264h594v-156h-684l-182 -315h-125l182 315h-239v156h327l154 264h-481v156z" />
    <glyph glyph-name="lessequal" unicode="&#x2264;" horiz-adv-x="1284" 
d="M55 272h1121v-155h-1121v155zM55 1102l1121 516v-143l-934 -433l934 -430v-145l-1121 516v119z" />
    <glyph glyph-name="greaterequal" unicode="&#x2265;" horiz-adv-x="1284" 
d="M109 272h1120v-155h-1120v155zM1229 1102v-119l-1120 -516v145l933 430l-933 433v143z" />
    <glyph glyph-name="M.1" horiz-adv-x="1875" 
d="M193 1690h213l532 -1272l532 1272h213v-1690h-188v1274l-494 -1188h-127l-493 1188v-1274h-188v1690z" />
    <glyph glyph-name="Q.1" horiz-adv-x="1929" 
d="M891 -123q-61 0 -118 -16.5t-95 -40.5t-67.5 -48t-43.5 -40l-14 -17l-45 68q5 7 14.5 19.5t39.5 44t61.5 57.5t77.5 50t90 30q-201 39 -355 160t-238.5 303t-84.5 397q0 182 68 345.5t183 279t272 183.5t329 68t329 -68t272 -183.5t183 -279t68 -345.5
q0 -307 -166.5 -537t-442.5 -307q-3 -1 42 -11.5t111 -21t109 -10.5q49 0 93 11.5t72 27.5t49 32.5t30 27.5l10 12l60 -127q-4 -7 -11 -18t-34.5 -40t-60.5 -51.5t-89.5 -40.5t-120.5 -18q-77 0 -148.5 16.5t-120.5 35.5t-130.5 35.5t-177.5 16.5zM315 844q0 -142 45 -268.5
t127 -222t206 -151t272 -55.5t272 55.5t205.5 151t126.5 222t45 268.5q0 141 -49 268.5t-133.5 221t-206.5 149t-260 55.5q-184 0 -334 -94t-233 -253t-83 -347z" />
    <glyph glyph-name="R.1" horiz-adv-x="1400" 
d="M193 1690h462q251 0 398 -128.5t147 -355.5q0 -201 -118 -332.5t-322 -156.5l391 -508q58 -68 106 -68q50 0 89 31l55 -141q-2 -3 -6.5 -7t-21 -14.5t-35 -19t-48.5 -15t-63 -6.5q-38 0 -73.5 11.5t-59 28t-41.5 33.5t-27 28l-8 12l-471 620h-166v-702h-188v1690z
M381 1538v-680h225q182 0 291 92t109 252t-108.5 248t-291.5 88h-225z" />
    <glyph glyph-name="a.1" horiz-adv-x="1277" 
d="M168 295q0 150 112 246t289 96q117 0 206 -36t138 -93v119q0 145 -85 227t-226 82q-105 0 -181.5 -35.5t-115.5 -79.5l-72 119q44 57 143.5 99t225.5 42q219 0 355.5 -117t136.5 -329v-635h-181v94q-56 -59 -143.5 -93t-194.5 -34q-175 0 -291 91t-116 237zM344 309
q0 -98 84 -160.5t205 -62.5t205 63.5t84 159.5q0 95 -83.5 156t-205.5 61t-205.5 -60t-83.5 -157z" />
    <glyph glyph-name="j.1" horiz-adv-x="548" 
d="M184 1049h181v-1581h-181v1581zM274 1501q52 0 88.5 -36.5t36.5 -88.5t-36.5 -88.5t-88.5 -36.5t-88 36t-36 89t36 89t88 36z" />
    <glyph glyph-name="t.1" horiz-adv-x="606" 
d="M186 1440h181v-391h231v-138h-231v-911h-181v911h-137v138h137v391z" />
    <glyph glyph-name="u.1" horiz-adv-x="1282" 
d="M168 1049h178v-621q0 -146 72.5 -231.5t210.5 -85.5q124 0 205 82t81 186v670h181v-1049h-181v137q-49 -81 -139.5 -125.5t-183.5 -44.5q-194 0 -309 108.5t-115 303.5v670z" />
    </font>
</defs>
</svg>
