<?xml version="1.0" standalone="no"?>
<!DOCTYPE svg PUBLIC "-//W3C//DTD SVG 1.1//EN" "http://www.w3.org/Graphics/SVG/1.1/DTD/svg11.dtd" >
<svg xmlns="http://www.w3.org/2000/svg" xmlns:xlink="http://www.w3.org/1999/xlink" version="1.1">
<metadata>
Created by FontForge 20170731 at Fri Dec 16 11:14:52 2022
 By Aleksey,,,
Copyright (c) 2017 by Matt Bailey. All rights reserved.
</metadata>
<defs>
<font id="SpartanMB-ExtraBold" horiz-adv-x="1398" >
  <font-face 
    font-family="Spartan MB"
    font-weight="800"
    font-stretch="normal"
    units-per-em="2048"
    panose-1="0 0 5 3 8 0 0 2 0 3"
    ascent="1638"
    descent="-410"
    x-height="1049"
    cap-height="1690"
    bbox="-342 -778 2961 2431"
    underline-thickness="102"
    underline-position="-307"
    unicode-range="U+000D-FB04"
  />
<missing-glyph horiz-adv-x="700" 
 />
    <glyph glyph-name="ff" unicode="ff" horiz-adv-x="1536" 
d="M74 1049h151v225q2 235 110.5 376.5t301.5 141.5q82 0 156.5 -23.5t108.5 -46.5l34 -24l-127 -256q-50 28 -109 28q-66 0 -89 -46t-23 -160v-215h364v225q2 235 110.5 376.5t301.5 141.5q82 0 156.5 -23.5t108.5 -46.5l34 -24l-127 -256q-50 28 -109 28q-66 0 -89 -46
t-23 -160v-215h241v-277h-241v-772h-363v772h-364v-772h-363v772h-151v277z" />
    <glyph glyph-name="fi" unicode="fi" horiz-adv-x="1376" 
d="M33 1049h151v225q2 238 112.5 378t319.5 140q79 0 157 -17.5t133 -42.5t98 -50t64 -42l22 -18l-127 -256q-15 12 -39.5 30t-88.5 47.5t-112 29.5q-103 0 -139.5 -47.5t-36.5 -161.5v-215h706v-1049h-362v772h-344v-772h-363v772h-151v277z" />
    <glyph glyph-name="fl" unicode="fl" horiz-adv-x="1376" 
d="M33 1049h151v225q2 235 110.5 376.5t301.5 141.5q144 0 256 -66l-84 -284q-50 28 -109 28q-66 0 -89 -46t-23 -160v-215h241v-277h-241v-772h-363v772h-151v277zM891 1761h362v-1761h-362v1761z" />
    <glyph glyph-name="ffi" unicode="ffi" horiz-adv-x="2144" 
d="M74 1049h151v225q2 235 110.5 376.5t301.5 141.5q82 0 156.5 -23.5t108.5 -46.5l34 -24l-127 -256q-50 28 -109 28q-66 0 -89 -46t-23 -160v-215h364v225q2 238 112.5 378t319.5 140q79 0 157 -17.5t133 -42.5t98 -50t64 -42l22 -18l-127 -256q-15 12 -39.5 30
t-88.5 47.5t-112 29.5q-103 0 -139.5 -47.5t-36.5 -161.5v-215h706v-1049h-362v772h-344v-772h-363v772h-364v-772h-363v772h-151v277z" />
    <glyph glyph-name="ffl" unicode="ffl" horiz-adv-x="2144" 
d="M74 1049h151v225q2 235 110.5 376.5t301.5 141.5q82 0 156.5 -23.5t108.5 -46.5l34 -24l-127 -256q-50 28 -109 28q-66 0 -89 -46t-23 -160v-215h364v225q2 235 110.5 376.5t301.5 141.5q144 0 256 -66l-84 -284q-50 28 -109 28q-66 0 -89 -46t-23 -160v-215h241v-277
h-241v-772h-363v772h-364v-772h-363v772h-151v277zM1659 1761h362v-1761h-362v1761z" />
    <glyph glyph-name="ft" unicode="ft" horiz-adv-x="1515" 
d="M33 1049h151v225q2 235 110.5 376.5t301.5 141.5q82 0 156.5 -23.5t108.5 -46.5l34 -24l-127 -256q-50 28 -109 28q-66 0 -89 -46t-23 -160v-215h344v393h362v-393h222v-277h-222v-332q0 -145 82 -145q21 0 43.5 8.5t34.5 16.5l12 8l91 -293q-13 -7 -36.5 -18
t-93.5 -29.5t-137 -18.5q-83 0 -147.5 24.5t-103.5 63t-64 93t-34 108t-9 113.5v401h-344v-772h-363v772h-151v277z" />
    <glyph glyph-name="fj" unicode="fj" horiz-adv-x="1376" 
d="M33 1049h151v225q2 238 112.5 378t319.5 140q79 0 157 -17.5t133 -42.5t98 -50t64 -42l22 -18l-127 -256q-15 12 -39.5 30t-88.5 47.5t-112 29.5q-103 0 -139.5 -47.5t-36.5 -161.5v-215h706v-1211q0 -59 -11.5 -113.5t-39 -108t-69.5 -92.5t-108.5 -63t-150.5 -24
q-41 0 -78.5 3.5t-60.5 7.5t-51 13.5t-38 13t-34 15t-26 12.5l112 293q48 -31 93 -31q47 0 73.5 36t26.5 108v864h-344v-772h-363v772h-151v277z" />
    <glyph glyph-name="fft" unicode="fft" horiz-adv-x="2283" 
d="M74 1049h151v225q2 235 110.5 376.5t301.5 141.5q82 0 156.5 -23.5t108.5 -46.5l34 -24l-127 -256q-50 28 -109 28q-66 0 -89 -46t-23 -160v-215h364v225q2 235 110.5 376.5t301.5 141.5q82 0 156.5 -23.5t108.5 -46.5l34 -24l-127 -256q-50 28 -109 28q-66 0 -89 -46
t-23 -160v-215h344v393h362v-393h222v-277h-222v-332q0 -145 82 -145q21 0 43.5 8.5t34.5 16.5l12 8l91 -293q-13 -7 -36.5 -18t-93.5 -29.5t-137 -18.5q-83 0 -147.5 24.5t-103.5 63t-64 93t-34 108t-9 113.5v401h-344v-772h-363v772h-364v-772h-363v772h-151v277z" />
    <glyph glyph-name="ffj" unicode="ffj" horiz-adv-x="2144" 
d="M74 1049h151v225q2 235 110.5 376.5t301.5 141.5q82 0 156.5 -23.5t108.5 -46.5l34 -24l-127 -256q-50 28 -109 28q-66 0 -89 -46t-23 -160v-215h364v225q2 238 112.5 378t319.5 140q79 0 157 -17.5t133 -42.5t98 -50t64 -42l22 -18l-127 -256q-15 12 -39.5 30
t-88.5 47.5t-112 29.5q-103 0 -139.5 -47.5t-36.5 -161.5v-215h706v-1211q0 -59 -11.5 -113.5t-39 -108t-69.5 -92.5t-108.5 -63t-150.5 -24q-41 0 -78.5 3.5t-60.5 7.5t-51 13.5t-38 13t-34 15t-26 12.5l112 293q48 -31 93 -31q47 0 73.5 36t26.5 108v864h-344v-772h-363
v772h-364v-772h-363v772h-151v277z" />
    <glyph glyph-name=".notdef" horiz-adv-x="700" 
 />
    <glyph glyph-name=".null" horiz-adv-x="0" 
 />
    <glyph glyph-name="nonmarkingreturn" horiz-adv-x="682" 
 />
    <glyph glyph-name="NULL" horiz-adv-x="0" 
 />
    <glyph glyph-name="NULL" horiz-adv-x="0" 
 />
    <glyph glyph-name="CR" unicode="&#xd;" horiz-adv-x="559" 
 />
    <glyph glyph-name="space" unicode=" " horiz-adv-x="559" 
 />
    <glyph glyph-name="exclam" unicode="!" horiz-adv-x="714" 
d="M176 1761h363l-50 -1208h-264zM356 436q98 0 167 -68.5t69 -166.5q0 -97 -69 -165.5t-167 -68.5q-97 0 -165 68.5t-68 165.5q0 98 68 166.5t165 68.5z" />
    <glyph glyph-name="quotedbl" unicode="&#x22;" horiz-adv-x="1050" 
d="M123 1720h348l-65 -749h-218zM580 1720h348l-66 -749h-217z" />
    <glyph glyph-name="numbersign" unicode="#" horiz-adv-x="1705" 
d="M139 1243h301l56 447h247l-55 -447h350l56 447h247l-55 -447h209v-248h-238l-36 -299h274v-247h-305l-53 -449h-248l53 449h-350l-53 -449h-248l53 449h-205v247h236l37 299h-273v248zM659 995l-36 -299h350l37 299h-351z" />
    <glyph glyph-name="dollar" unicode="$" horiz-adv-x="1376" 
d="M47 193l193 323q9 -8 25.5 -20.5t65.5 -45.5t96 -58t110 -45.5t116 -20.5q33 0 58.5 2t63 11.5t62 26t42.5 49t18 77.5q0 30 -15.5 57t-37 47t-64 44.5t-75.5 40t-92.5 43.5t-96.5 46q-153 75 -237 188.5t-84 245.5q0 98 35.5 185.5t96 151t138 107t164.5 62.5v262h221
v-256q70 -9 139 -28t117.5 -40t87 -41t57.5 -33l19 -13l-156 -308q-7 5 -19.5 13t-50.5 28.5t-76.5 36t-92.5 28.5t-103 13q-96 0 -148.5 -41.5t-52.5 -111.5q0 -17 6.5 -33.5t22.5 -33t31 -30t45 -30.5t51 -28.5t61.5 -29.5t64 -28.5t71.5 -30.5q75 -32 142 -75.5
t125.5 -101t93 -131.5t34.5 -153q0 -121 -36.5 -217t-102 -158.5t-148 -100.5t-182.5 -54v-267h-221v254q-102 5 -199.5 29.5t-164 56.5t-118 63t-75.5 52z" />
    <glyph glyph-name="percent" unicode="%" horiz-adv-x="2009" 
d="M47 1317q0 177 130.5 290t326.5 113q190 0 319 -113.5t129 -289.5q0 -175 -126 -289.5t-322 -114.5q-205 0 -331 113.5t-126 290.5zM395 0l983 1690h242l-983 -1690h-242zM311 1317q0 -83 53 -135t136 -52q79 0 131.5 52.5t52.5 134.5t-53.5 136t-130.5 54
q-79 0 -134 -54t-55 -136zM1057 373q0 177 125.5 290t330.5 113q196 0 322.5 -114t126.5 -289q0 -176 -129.5 -290t-319.5 -114q-195 0 -325.5 113.5t-130.5 290.5zM1321 373q0 -82 54.5 -136.5t133.5 -54.5q77 0 131 54.5t54 136.5t-53 134t-132 52q-83 0 -135.5 -51.5
t-52.5 -134.5z" />
    <glyph glyph-name="ampersand" unicode="&#x26;" horiz-adv-x="1705" 
d="M59 444q0 75 34.5 144.5t98.5 127.5t129 101.5t150 87.5q-82 103 -126 192.5t-44 182.5q0 201 141 320.5t398 119.5q122 0 220 -38.5t158 -102.5t91.5 -141t31.5 -158q0 -71 -34.5 -140t-83.5 -117t-97.5 -85.5t-83.5 -55.5l-34 -18l225 -233q8 4 25.5 14.5t81.5 64.5
t141 134l237 -234q-114 -131 -239 -231l364 -379h-485l-168 174q-133 -94 -198 -128q-156 -79 -345 -79q-81 0 -158 13t-156.5 47.5t-139 86.5t-97 137t-37.5 193zM692 1280q0 -44 31 -95.5t61 -81.5l31 -30q189 103 189 207q0 75 -38.5 121.5t-125.5 46.5q-74 0 -111 -47.5
t-37 -120.5zM496 475q0 -68 57 -104.5t133 -36.5q62 0 125.5 24t96.5 48l32 24l-268 264q-7 -3 -19 -8t-42.5 -24.5t-53.5 -42t-42 -61.5t-19 -83z" />
    <glyph glyph-name="quotesingle" unicode="'" horiz-adv-x="593" 
d="M123 1720h348l-65 -747h-218z" />
    <glyph glyph-name="parenleft" unicode="(" horiz-adv-x="825" 
d="M113 629q0 147 19.5 290.5t51.5 255.5t70 213t76 173t70 125.5t52 79.5l19 26l236 -100q-11 -14 -28.5 -42t-62.5 -127t-79.5 -212t-62.5 -297.5t-28 -384.5q0 -146 14.5 -283t37.5 -240t50.5 -193.5t55.5 -152t51 -106t37 -65.5l15 -21l-236 -100q-7 9 -20 26.5
t-50.5 77.5t-71 126.5t-75 171.5t-71 214.5t-50 253.5t-20.5 291z" />
    <glyph glyph-name="parenright" unicode=")" horiz-adv-x="825" 
d="M713 629q0 -147 -20 -290t-51.5 -255t-69.5 -213t-76.5 -173t-70 -125t-51.5 -79l-20 -26l-235 100q11 14 28.5 42t62 126.5t79 211t62.5 297t28 384.5q0 146 -14.5 283t-37.5 240t-50.5 194t-55 152.5t-50.5 106.5t-37 66l-15 21l235 100q8 -9 20.5 -26.5t50 -78
t71.5 -127t75.5 -171.5t71 -215t50 -254t20.5 -291z" />
    <glyph glyph-name="asterisk" unicode="*" horiz-adv-x="999" 
d="M410 1761h180v-239l233 71l54 -163l-234 -84l135 -203l-135 -92l-143 186l-144 -186l-135 92l135 203l-233 84l53 163l234 -71v239z" />
    <glyph glyph-name="plus" unicode="+" horiz-adv-x="1294" 
d="M492 1374h311v-368h368v-312h-368v-368h-311v368h-369v312h369v368z" />
    <glyph glyph-name="comma" unicode="," horiz-adv-x="714" 
d="M356 438q98 0 167 -68.5t69 -166.5q0 -303 -344 -588l-105 86q5 5 13.5 14t31.5 38t42.5 60.5t39.5 79t29 95.5q-77 19 -126.5 77t-49.5 138q0 98 68 166.5t165 68.5z" />
    <glyph glyph-name="hyphen" unicode="-" horiz-adv-x="905" 
d="M123 750h659v-314h-659v314z" />
    <glyph glyph-name="period" unicode="." horiz-adv-x="714" 
d="M356 436q98 0 167 -68.5t69 -166.5q0 -97 -69 -165.5t-167 -68.5q-97 0 -165 68.5t-68 165.5q0 98 68 166.5t165 68.5z" />
    <glyph glyph-name="slash" unicode="/" horiz-adv-x="1251" 
d="M47 -246l844 2007h313l-844 -2007h-313z" />
    <glyph glyph-name="zero" unicode="0" horiz-adv-x="1486" 
d="M1430 844q0 -171 -36.5 -315.5t-101 -247t-151.5 -174t-187.5 -106t-210.5 -34.5q-138 0 -260.5 56t-218 162t-151.5 276t-56 383q0 171 36.5 315.5t100.5 246.5t151 173.5t187.5 106t210.5 34.5t210.5 -34.5t187.5 -106t151.5 -173.5t101 -246.5t36.5 -315.5zM1040 844
q0 254 -79 396t-218 142t-218 -142t-79 -396t79 -396.5t218 -142.5t218 142.5t79 396.5z" />
    <glyph glyph-name="one" unicode="1" horiz-adv-x="784" 
d="M-2 1690h664v-1690h-386v1311h-278v379z" />
    <glyph glyph-name="two" unicode="2" horiz-adv-x="1542" 
d="M121 1229q3 10 10 28t33 69t57 97.5t84.5 103.5t113.5 98t145 69t179 28q120 0 218.5 -22.5t165.5 -58t117.5 -87t79 -104t46.5 -114t23.5 -110t5.5 -100.5q0 -81 -33 -168t-85.5 -161.5t-116 -146t-127 -127t-116 -98t-85.5 -65.5l-33 -22h627v-338h-1317v219
q18 12 49.5 34.5t122 90.5t172.5 135t182.5 159t172.5 173t121.5 166.5t49.5 148.5q0 129 -62 200t-178 71q-52 0 -101.5 -33.5t-84 -81t-62 -95t-40.5 -81.5l-13 -33z" />
    <glyph glyph-name="three" unicode="3" horiz-adv-x="1361" 
d="M117 1350q2 8 6 21.5t22.5 52t42.5 73.5t69.5 78t100.5 74t138 52t180 21q242 0 398.5 -139t156.5 -354q0 -201 -150 -318q102 -62 158.5 -159.5t56.5 -227.5q0 -242 -177 -398.5t-449 -156.5q-106 0 -198.5 23t-155.5 59.5t-114 81t-81 89t-50.5 81t-28.5 59.5l-7 23
l356 174q0 -5 1.5 -14.5t9 -36.5t18.5 -51t32.5 -54t49 -51.5t71 -36t95.5 -14.5q108 0 175.5 59t67.5 164q0 108 -70.5 178t-172.5 70q-18 0 -36.5 -3t-27.5 -6l-10 -3v252h84q79 0 141 61.5t62 151.5q0 80 -62.5 134t-146.5 54q-60 0 -107.5 -21.5t-73.5 -52.5t-43 -62.5
t-22 -52.5l-6 -22z" />
    <glyph glyph-name="four" unicode="4" horiz-adv-x="1363" 
d="M-51 356v115l811 1219h381v-996h196v-338h-196v-356h-361v356h-831zM475 694h305v482z" />
    <glyph glyph-name="five" unicode="5" horiz-adv-x="1312" 
d="M295 1690h862v-338h-532l-37 -236q7 0 23 1t24 1q102 -1 189 -17t170.5 -58t142 -107.5t94 -170.5t35.5 -241q0 -160 -81 -287.5t-224 -198.5t-322 -71q-129 0 -236 32.5t-178 87.5t-117 116.5t-71 130.5l305 147q25 -85 99 -138.5t198 -53.5q104 0 173 70.5t69 177.5
q0 65 -25 116.5t-66.5 84.5t-99 55.5t-118.5 31.5t-130 9q-168 0 -288 -54z" />
    <glyph glyph-name="six" unicode="6" horiz-adv-x="1411" 
d="M55 541q0 88 12 162.5t30 131.5t56.5 125.5t72 118.5t96.5 135l397 476h475l-498 -582q43 25 121 25q71 0 145 -23.5t144.5 -72.5t126 -117.5t89.5 -167t34 -211.5q0 -116 -36 -212.5t-96.5 -162.5t-142 -111.5t-170 -66.5t-182.5 -21q-187 0 -341.5 75.5t-243.5 207
t-89 291.5zM455 541q0 -111 72 -183.5t184 -72.5t186 73t74 183q0 113 -75 187.5t-185 74.5q-107 0 -181.5 -74.5t-74.5 -187.5z" />
    <glyph glyph-name="seven" unicode="7" horiz-adv-x="1409" 
d="M164 1690h1296v-113l-893 -1577h-454l778 1352h-727v338z" />
    <glyph glyph-name="eight" unicode="8" horiz-adv-x="1404" 
d="M702 -33q-122 0 -236.5 36.5t-201.5 100t-139.5 155.5t-52.5 196q0 165 79.5 279.5t215.5 176.5q-224 128 -224 383q0 121 82 220t209.5 152.5t267.5 53.5t268 -53.5t210 -152.5t82 -220q0 -255 -224 -383q136 -62 215.5 -176.5t79.5 -279.5q0 -138 -89.5 -251.5
t-233.5 -175t-308 -61.5zM702 299q94 0 153.5 61t59.5 156q0 94 -60.5 154.5t-152.5 60.5t-152.5 -60.5t-60.5 -154.5q0 -95 59.5 -156t153.5 -61zM512 1239q0 -83 55 -135.5t135 -52.5t135.5 52.5t55.5 135.5q0 82 -54.5 136.5t-136.5 54.5t-136 -54.5t-54 -136.5z" />
    <glyph glyph-name="nine" unicode="9" horiz-adv-x="1411" 
d="M55 1147q0 116 36 212.5t96.5 162.5t142 112t170 67t182.5 21q187 0 341.5 -75.5t243.5 -207.5t89 -292q0 -109 -15 -194t-54 -167.5t-79 -144.5t-118 -168l-398 -473h-475l498 580q-43 -25 -121 -25q-71 0 -145 23.5t-144.5 72.5t-126 117.5t-89.5 167t-34 211.5z
M440 1147q0 -113 75 -187.5t185 -74.5q107 0 181.5 74.5t74.5 187.5q0 111 -72 183.5t-184 72.5t-186 -73t-74 -183z" />
    <glyph glyph-name="colon" unicode=":" horiz-adv-x="714" 
d="M356 1135q98 0 167 -69t69 -167q0 -97 -69 -165t-167 -68q-97 0 -165 68t-68 165q0 98 68 167t165 69zM356 436q98 0 167 -68.5t69 -166.5q0 -97 -69 -165.5t-167 -68.5q-97 0 -165 68.5t-68 165.5q0 98 68 166.5t165 68.5z" />
    <glyph glyph-name="semicolon" unicode=";" horiz-adv-x="714" 
d="M356 1135q98 0 167 -69t69 -167q0 -97 -69 -165t-167 -68q-97 0 -165 68t-68 165q0 98 68 167t165 69zM356 438q98 0 167 -68.5t69 -166.5q0 -303 -344 -588l-105 86q5 5 13.5 14t31.5 38t42.5 60.5t39.5 79t29 95.5q-77 19 -126.5 77t-49.5 138q0 98 68 166.5t165 68.5z
" />
    <glyph glyph-name="less" unicode="&#x3c;" horiz-adv-x="1355" 
d="M123 973l1120 454v-290l-733 -285l733 -285v-291l-1120 455v242z" />
    <glyph glyph-name="equal" unicode="=" horiz-adv-x="1294" 
d="M123 1251h1048v-313h-1048v313zM123 760h1048v-314h-1048v314z" />
    <glyph glyph-name="greater" unicode="&#x3e;" horiz-adv-x="1355" 
d="M113 1427l1120 -454v-242l-1120 -455v291l733 285l-733 285v290z" />
    <glyph glyph-name="question" unicode="?" horiz-adv-x="1220" 
d="M596 436q98 0 166.5 -68.5t68.5 -166.5q0 -97 -68.5 -165.5t-166.5 -68.5q-97 0 -165.5 68.5t-68.5 165.5q0 98 68.5 166.5t165.5 68.5zM47 1294q12 61 37.5 118.5t72 114.5t107 99t149 68t191.5 26q118 0 216 -34t161.5 -88t107 -123t62 -136.5t18.5 -130.5
q0 -67 -23 -139t-68.5 -143t-126.5 -127.5t-185 -81.5v-164h-338v483q68 -16 176 -16q51 0 91.5 14t64.5 34.5t39.5 47t21.5 49.5t6 43q0 27 -10.5 57t-33.5 61.5t-69.5 52t-109.5 20.5q-52 0 -93.5 -10.5t-68 -26.5t-46.5 -40t-30.5 -45t-19.5 -48z" />
    <glyph glyph-name="at" unicode="@" horiz-adv-x="1886" 
d="M47 846q0 190 74 355t199.5 278t294 177t354.5 64q119 0 231 -27t208 -76.5t176.5 -123t137 -162.5t88 -198t31.5 -228q0 -93 -24 -169t-64.5 -127t-94.5 -86t-112.5 -50.5t-120.5 -15.5q-82 0 -157 25.5t-127 68.5l-19 -27q-45 -50 -112 -80t-146 -30q-167 0 -277 118.5
t-110 292.5q0 175 110 295.5t277 120.5q157 0 258 -98v76h244v-428q0 -3 1 -9t7.5 -21t16.5 -26t31 -20.5t48 -9.5q68 0 97.5 44.5t29.5 155.5q0 158 -82.5 283.5t-225.5 194.5t-320 69q-171 0 -314.5 -81.5t-226 -220.5t-82.5 -304q0 -164 84 -299.5t227 -212t312 -76.5
q76 0 143 14.5t109 35t73 40.5t44 34l14 15l237 -157q-4 -6 -11 -15.5t-34.5 -38t-59.5 -54.5t-85.5 -57.5t-113 -54t-143 -38t-173.5 -15.5q-186 0 -354.5 65t-294 179t-199.5 279.5t-74 355.5zM795 829q0 -71 46.5 -117t119.5 -46q69 0 115 46.5t46 116.5q0 71 -47 119.5
t-114 48.5q-69 0 -117.5 -48.5t-48.5 -119.5z" />
    <glyph glyph-name="A" unicode="A" horiz-adv-x="1605" 
d="M625 1690h356l682 -1690h-414l-125 338h-643l-125 -338h-413zM803 1167l-191 -491h381z" />
    <glyph glyph-name="B" unicode="B" horiz-adv-x="1363" 
d="M123 1690h524q90 0 166 -13.5t142.5 -45.5t112.5 -80.5t72.5 -122.5t26.5 -168q0 -120 -53 -214.5t-158 -148.5q361 -63 361 -426q0 -213 -147 -342t-406 -129h-641v1690zM508 1393v-365h31q129 0 192.5 45t63.5 148q0 89 -64 130.5t-192 41.5h-31zM508 696v-399h121
q140 0 211 45t71 143q0 113 -70 162t-212 49h-121z" />
    <glyph glyph-name="C" unicode="C" horiz-adv-x="1542" 
d="M47 844q0 142 49 276.5t136 242t201 188.5t251 125t279 44q103 0 198 -16t157 -39t109.5 -45.5t68.5 -38.5l22 -16l-164 -328q-6 4 -16 11t-44 25t-70 32t-91.5 25t-110.5 11q-112 0 -206 -30t-157.5 -80t-108 -115t-65 -134t-20.5 -138q0 -70 20.5 -139t65 -134
t108 -115t157.5 -80t206 -30q55 0 109.5 11t93 26t69 30.5t45.5 26.5l15 11l164 -328q-8 -6 -22.5 -16.5t-67 -37.5t-111.5 -47.5t-155 -37.5t-199 -17q-176 0 -344 70t-293.5 187t-202 280t-76.5 340z" />
    <glyph glyph-name="D" unicode="D" horiz-adv-x="1511" 
d="M123 1690h489q172 0 328 -63.5t271.5 -174t184 -269.5t68.5 -339q0 -181 -68 -339.5t-183.5 -268.5t-271.5 -173t-329 -63h-489v1690zM508 1346v-1002h59q211 0 345.5 142.5t136.5 357.5q0 141 -60 255t-170.5 180.5t-251.5 66.5h-59z" />
    <glyph glyph-name="E" unicode="E" horiz-adv-x="1187" 
d="M123 1690h967v-338h-582v-336h557v-338h-557v-340h582v-338h-967v1690z" />
    <glyph glyph-name="F" unicode="F" horiz-adv-x="1198" 
d="M123 1690h977v-338h-592v-336h547v-338h-547v-678h-385v1690z" />
    <glyph glyph-name="G" unicode="G" horiz-adv-x="1697" 
d="M47 844q0 180 62.5 341.5t170.5 279t261.5 186.5t328.5 69q414 0 652 -288l-252 -277q-135 217 -377 217q-117 0 -216 -70.5t-156.5 -192t-57.5 -265.5q0 -141 57.5 -261.5t156.5 -190.5t216 -70q67 0 131 21t117.5 59.5t86 100t32.5 136.5v8h-390v297h781v-297
q0 -94 -33 -189.5t-100 -183.5t-159 -156.5t-219 -109.5t-270 -41q-134 0 -260 44.5t-227 125.5t-177 189t-117.5 241.5t-41.5 276.5z" />
    <glyph glyph-name="H" unicode="H" horiz-adv-x="1560" 
d="M123 1690h385v-674h545v674h385v-1690h-385v678h-545v-678h-385v1690z" />
    <glyph glyph-name="I" unicode="I" horiz-adv-x="630" 
d="M123 1690h385v-1690h-385v1690z" />
    <glyph glyph-name="J" unicode="J" horiz-adv-x="960" 
d="M473 1690h385v-1215q0 -248 -135.5 -378t-390.5 -130q-68 0 -133.5 16.5t-110.5 40.5t-81 48t-53 40l-17 17l122 322q5 -5 14 -12.5t35 -27.5t51.5 -35t59 -27.5t60.5 -12.5q89 0 141.5 58t52.5 179v1117z" />
    <glyph glyph-name="K" unicode="K" horiz-adv-x="1611" 
d="M123 1690h385v-691l579 691h467l-680 -801l787 -889h-531l-622 717v-717h-385v1690z" />
    <glyph glyph-name="L" unicode="L" horiz-adv-x="1157" 
d="M123 1690h385v-1352h582v-338h-967v1690z" />
    <glyph glyph-name="M" unicode="M" horiz-adv-x="1937" 
d="M184 1690h410l375 -975l374 975h410l152 -1690h-385l-80 1001l-357 -991h-229l-356 991l-80 -1001h-385z" />
    <glyph glyph-name="N" unicode="N" horiz-adv-x="1691" 
d="M123 1690h385l676 -1049v1049h385v-1690h-385l-676 1049v-1049h-385v1690z" />
    <glyph glyph-name="O" unicode="O" horiz-adv-x="1798" 
d="M47 844q0 182 68 345t182.5 279t271.5 184t330 68t330 -68t271.5 -184t182.5 -279t68 -345t-68 -345t-182.5 -279.5t-271.5 -184.5t-330 -68t-330 68t-271.5 184.5t-182.5 279.5t-68 345zM463 844q0 -77 16.5 -149.5t52 -137.5t85.5 -113.5t123 -77t159 -28.5t159 28.5
t123 77t85.5 113.5t52 137.5t16.5 149.5t-16.5 149.5t-52 137.5t-85.5 113.5t-123 77t-159 28.5t-159 -28.5t-123 -77t-85.5 -113.5t-52 -137.5t-16.5 -149.5z" />
    <glyph glyph-name="P" unicode="P" horiz-adv-x="1363" 
d="M123 1690h616q125 0 229.5 -32.5t183 -96t122 -164t43.5 -228.5q0 -170 -76 -294t-205.5 -186t-296.5 -62h-231v-627h-385v1690zM508 1382v-448h108q61 0 111 11t93 35.5t67 69.5t24 107q0 51 -16.5 90.5t-43.5 64.5t-65.5 41t-80 22.5t-89.5 6.5h-108z" />
    <glyph glyph-name="Q" unicode="Q" horiz-adv-x="1775" 
d="M47 844q0 182 66.5 345t179.5 279t268.5 184t327.5 68q173 0 328.5 -68t267.5 -184.5t178 -279t66 -344.5q0 -262 -125 -473q89 -44 231 -82l-170 -344q-170 64 -309 161q-202 -139 -467 -139q-184 0 -342 68t-267 185t-171 278.5t-62 345.5zM463 844q0 -78 14 -147.5
t46 -133t80 -108.5t121 -72t165 -27q65 0 121 15q-110 103 -209 229l164 205q13 -14 36.5 -38.5t98.5 -89t151 -116.5q62 118 62 283q0 98 -25 183.5t-74.5 155t-133 110t-191.5 40.5q-107 0 -191 -40.5t-134 -110t-75.5 -155.5t-25.5 -183z" />
    <glyph glyph-name="R" unicode="R" horiz-adv-x="1466" 
d="M123 1690h616q125 0 229.5 -32.5t183 -96t122 -164t43.5 -228.5q0 -193 -95 -324.5t-259 -185.5l550 -659h-489l-485 627h-31v-627h-385v1690zM508 1382v-448h108q61 0 111 11t93 35.5t67 69.5t24 107q0 51 -16.5 90.5t-43.5 64.5t-65.5 41t-80 22.5t-89.5 6.5h-108z" />
    <glyph glyph-name="S" unicode="S" horiz-adv-x="1376" 
d="M195 1202q0 151 81.5 272t206 183.5t262.5 62.5q86 0 171.5 -16.5t146.5 -40t109.5 -47.5t73.5 -40l24 -17l-156 -308q-7 5 -19.5 13t-50.5 28.5t-76.5 36t-92.5 28.5t-103 13q-96 0 -148.5 -41.5t-52.5 -111.5q0 -17 6.5 -33.5t22.5 -33t31 -30t45 -30.5t51 -28.5
t61.5 -29.5t64 -28.5t71.5 -30.5q75 -32 142 -75.5t125.5 -101t93 -131.5t34.5 -153q0 -117 -35 -211t-94 -155.5t-141.5 -102.5t-173 -58.5t-193.5 -17.5q-111 0 -217 23t-178.5 55.5t-129 65.5t-83.5 56l-27 23l193 324q9 -8 25.5 -20.5t65.5 -45.5t96 -58t110 -45.5
t116 -20.5q33 0 58.5 2t63 11t62 25.5t42.5 49t18 77.5q0 30 -15.5 57t-37 47t-64 44.5t-75 40.5t-93 44t-96.5 46q-153 75 -237 188.5t-84 245.5z" />
    <glyph glyph-name="T" unicode="T" horiz-adv-x="1220" 
d="M16 1690h1188v-338h-401v-1352h-385v1352h-402v338z" />
    <glyph glyph-name="U" unicode="U" horiz-adv-x="1523" 
d="M102 1690h385v-979q0 -140 30.5 -220.5t88.5 -112.5t156 -32t156 32t88 112.5t30 220.5v979h385v-1092q0 -312 -167.5 -471.5t-491.5 -159.5t-492 159.5t-168 471.5v1092z" />
    <glyph glyph-name="V" unicode="V" horiz-adv-x="1605" 
d="M-57 1690h434l426 -1110l426 1110h434l-709 -1690h-303z" />
    <glyph glyph-name="W" unicode="W" horiz-adv-x="2244" 
d="M1874 1690h428l-481 -1690h-428l-271 948l-270 -948h-428l-481 1690h428l288 -1160l318 1160h291l317 -1160z" />
    <glyph glyph-name="X" unicode="X" horiz-adv-x="1638" 
d="M1130 1690h459l-532 -781l639 -909h-477l-400 575l-399 -575h-477l639 909l-533 781h459l311 -461z" />
    <glyph glyph-name="Y" unicode="Y" horiz-adv-x="1515" 
d="M-57 1690h463l352 -541l352 541h463l-623 -932v-758h-385v758z" />
    <glyph glyph-name="Z" unicode="Z" horiz-adv-x="1574" 
d="M152 1690h1390l-837 -1352h782v-338h-1454l835 1352h-716v338z" />
    <glyph glyph-name="bracketleft" unicode="[" horiz-adv-x="905" 
d="M123 1761h659v-239h-346v-1815h346v-239h-659v2293z" />
    <glyph glyph-name="backslash" unicode="\" horiz-adv-x="1251" 
d="M47 1761h313l844 -1761h-313z" />
    <glyph glyph-name="bracketright" unicode="]" horiz-adv-x="905" 
d="M123 1761h659v-2293h-659v239h346v1815h-346v239z" />
    <glyph glyph-name="asciicircum" unicode="^" horiz-adv-x="1015" 
d="M-10 1239l424 483h188l424 -483h-330l-188 223l-189 -223h-329z" />
    <glyph glyph-name="underscore" unicode="_" horiz-adv-x="1050" 
d="M0 -33h1051v-174h-1051v174z" />
    <glyph glyph-name="grave" unicode="`" horiz-adv-x="794" 
d="M96 1485l187 235l415 -360l-114 -158z" />
    <glyph glyph-name="a" unicode="a" 
d="M49 524q0 114 38.5 216.5t106 177.5t165 119t210.5 44q208 0 344 -133v101h369v-1049h-369v113q-65 -66 -154 -106t-190 -40q-113 0 -210.5 44t-165 119t-106 177.5t-38.5 216.5zM434 524q0 -108 67.5 -178t176.5 -70q106 0 175 70.5t69 177.5t-70.5 177.5t-173.5 70.5
q-104 0 -174 -70t-70 -178z" />
    <glyph glyph-name="b" unicode="b" 
d="M117 1761h368v-813q136 133 344 133q150 0 270 -75t185.5 -202t65.5 -280t-65.5 -280t-185.5 -202t-270 -75q-101 0 -190 40t-154 106v-113h-368v1761zM477 524q0 -107 69 -177.5t175 -70.5q109 0 176.5 70t67.5 178t-70 178t-174 70q-103 0 -173.5 -70.5t-70.5 -177.5z
" />
    <glyph glyph-name="c" unicode="c" horiz-adv-x="1005" 
d="M47 524q0 151 81.5 280t215.5 203t285 74q65 0 125.5 -10t100 -24.5t69.5 -29t44 -24.5l13 -10l-123 -248q-8 5 -22 13.5t-60 22t-94 13.5q-103 0 -176.5 -76.5t-73.5 -183.5q0 -108 73.5 -184t176.5 -76q48 0 92 12t64 24l20 13l123 -252q-5 -4 -14.5 -10t-42.5 -22.5
t-70.5 -29t-98.5 -22.5t-126 -10q-150 0 -284 74.5t-216 203.5t-82 279z" />
    <glyph glyph-name="d" unicode="d" 
d="M49 524q0 114 38.5 216.5t106 177.5t165 119t210.5 44q208 0 344 -133v813h369v-1761h-369v113q-65 -66 -154 -106t-190 -40q-113 0 -210.5 44t-165 119t-106 177.5t-38.5 216.5zM434 524q0 -108 67.5 -178t176.5 -70q106 0 175 70.5t69 177.5t-70.5 177.5t-173.5 70.5
q-104 0 -174 -70t-70 -178z" />
    <glyph glyph-name="e" unicode="e" horiz-adv-x="1234" 
d="M47 526q0 151 78 279t211 202t289 74q121 0 223 -35.5t178 -104t119 -175.5t43 -242q0 -37 -2 -49h-762q0 -58 22 -102t57.5 -68.5t73 -36.5t74.5 -12q88 0 139 23.5t117 93.5l262 -131q-164 -275 -544 -275q-156 0 -289 75.5t-211 204.5t-78 279zM434 676h400
q-12 82 -65 126t-134 44q-91 0 -143.5 -47.5t-57.5 -122.5z" />
    <glyph glyph-name="f" unicode="f" horiz-adv-x="768" 
d="M33 1049h151v225q2 235 110.5 376.5t301.5 141.5q82 0 156.5 -23.5t108.5 -46.5l34 -24l-127 -256q-50 28 -109 28q-66 0 -89 -46t-23 -160v-215h241v-277h-241v-772h-363v772h-151v277z" />
    <glyph glyph-name="g" unicode="g" 
d="M434 524q0 -108 67.5 -178t176.5 -70q106 0 175 70.5t69 177.5t-70.5 177.5t-173.5 70.5q-104 0 -174 -70t-70 -178zM913 -2v115q-65 -66 -154 -106t-190 -40q-113 0 -210.5 44t-165 119t-106 177.5t-38.5 216.5t38.5 216.5t106 177.5t165 119t210.5 44q208 0 344 -133
v101h369v-1078q0 -172 -81 -294t-219 -181t-320 -59q-450 0 -582 305l297 145q35 -56 106 -95.5t179 -39.5q40 0 81 13t80.5 39.5t64.5 77t25 116.5z" />
    <glyph glyph-name="h" unicode="h" horiz-adv-x="1353" 
d="M123 1761h362v-821q148 141 306 141q61 0 122 -12t123 -41t109 -72t76.5 -111.5t29.5 -152.5v-692h-362v594q0 82 -52.5 143.5t-136.5 61.5q-82 0 -148.5 -63.5t-66.5 -141.5v-594h-362v1761z" />
    <glyph glyph-name="i" unicode="i" horiz-adv-x="606" 
d="M303 1700q89 0 152 -63t63 -152t-63 -152t-152 -63t-152 63t-63 152t63 152t152 63zM123 1049h360v-1049h-360v1049z" />
    <glyph glyph-name="j" unicode="j" horiz-adv-x="608" 
d="M309 1700q89 0 152 -63t63 -152t-63 -152t-152 -63t-152 63t-63 152t63 152t152 63zM123 1049h362v-1211q0 -59 -11.5 -113.5t-39 -108t-69.5 -92.5t-108.5 -63t-150.5 -24q-41 0 -78.5 3.5t-60.5 7.5t-51 13.5t-38 13t-34 15t-26 12.5l112 293q48 -31 93 -31
q47 0 73.5 36t26.5 108v1141z" />
    <glyph glyph-name="k" unicode="k" horiz-adv-x="1323" 
d="M123 1761h362v-1079l367 367h471l-500 -502l549 -547h-467l-420 418v-418h-362v1761z" />
    <glyph glyph-name="l" unicode="l" horiz-adv-x="610" 
d="M123 1761h364v-1761h-364v1761z" />
    <glyph glyph-name="m" unicode="m" horiz-adv-x="2017" 
d="M123 1049h362v-109q148 141 306 141q115 0 214.5 -46.5t151.5 -145.5q160 192 348 192q61 0 117 -12t110.5 -41t94 -72.5t64 -111t24.5 -152.5v-692h-363v594q0 85 -46.5 141t-137.5 56q-81 0 -124.5 -49t-43.5 -115v-627h-362v594q0 84 -47 140.5t-138 56.5
q-84 0 -126 -53t-42 -124v-614h-362v1049z" />
    <glyph glyph-name="n" unicode="n" horiz-adv-x="1353" 
d="M123 1049h362v-109q148 141 306 141q61 0 122 -12t123 -41t109 -72t76.5 -111.5t29.5 -152.5v-692h-362v594q0 82 -52.5 143.5t-136.5 61.5q-82 0 -148.5 -63.5t-66.5 -141.5v-594h-362v1049z" />
    <glyph glyph-name="o" unicode="o" horiz-adv-x="1347" 
d="M47 524q0 121 48.5 225t132 176.5t199.5 114t247 41.5q176 0 318.5 -70t225 -198t82.5 -289t-82.5 -289t-225 -198t-318.5 -70q-131 0 -247 41.5t-199.5 114t-132 176.5t-48.5 225zM428 524q0 -108 71 -178t175 -70t175 70t71 178t-71 178t-175 70t-175 -70t-71 -178z
" />
    <glyph glyph-name="p" unicode="p" 
d="M1350 524q0 -153 -65.5 -280t-185.5 -202t-270 -75q-101 0 -190 40t-154 106v-645h-368v1581h368v-101q136 133 344 133q150 0 270 -75t185.5 -202t65.5 -280zM965 524q0 108 -70 178t-174 70q-103 0 -173.5 -70.5t-70.5 -177.5t69 -177.5t175 -70.5q109 0 176.5 70
t67.5 178z" />
    <glyph glyph-name="q" unicode="q" 
d="M49 524q0 114 38.5 216.5t106 177.5t165 119t210.5 44q208 0 344 -133v101h369v-1581h-369v645q-65 -66 -154 -106t-190 -40q-113 0 -210.5 44t-165 119t-106 177.5t-38.5 216.5zM434 524q0 -108 67.5 -178t176.5 -70q106 0 175 70.5t69 177.5t-70.5 177.5t-173.5 70.5
q-104 0 -174 -70t-70 -178z" />
    <glyph glyph-name="r" unicode="r" horiz-adv-x="1019" 
d="M125 1049h360v-150q5 7 14 19.5t41 44t67 55.5t90.5 43.5t113.5 19.5q60 0 117.5 -16.5t84.5 -32.5l27 -16l-151 -307q-8 6 -22.5 15.5t-63.5 25.5t-103 16q-53 0 -94 -20t-63 -47t-36 -59.5t-18 -53.5t-4 -33v-553h-360v1049z" />
    <glyph glyph-name="s" unicode="s" horiz-adv-x="1007" 
d="M580 1081q90 0 178 -20.5t131 -40.5l43 -21l-119 -237q-14 7 -37 18t-85 29t-111 18q-62 0 -87.5 -13.5t-25.5 -49.5q0 -18 9.5 -31.5t33.5 -25t46 -19.5t65 -21q2 -1 3.5 -1t3 -1t3.5 -1q49 -15 87.5 -31t84 -44.5t76 -63t51 -86t20.5 -113.5q0 -359 -497 -359
q-71 0 -139 14.5t-114.5 35.5t-82.5 42t-53 35l-17 15l148 247q6 -5 16 -13t41 -28.5t61 -36.5t69.5 -29t72.5 -13q32 0 53 3.5t40 21t19 50.5q0 34 -28 54.5t-98 46.5t-107 45q-46 24 -79 46.5t-66 56.5t-50.5 80t-17.5 103q0 159 124.5 248.5t334.5 89.5z" />
    <glyph glyph-name="t" unicode="t" horiz-adv-x="808" 
d="M33 1049h151v393h363v-393h221v-277h-221v-334q0 -145 82 -145q21 0 43.5 8.5t34.5 16.5l12 8l90 -293q-13 -7 -36.5 -18t-93 -29.5t-136.5 -18.5q-83 0 -148 24.5t-104 63t-63.5 93t-34 108t-9.5 113.5v403h-151v277z" />
    <glyph glyph-name="u" unicode="u" horiz-adv-x="1343" 
d="M102 1049h363v-502q0 -156 46.5 -220.5t160.5 -64.5t160.5 64.5t46.5 220.5v502h362v-590q0 -262 -136 -377t-433 -115q-298 0 -434 115t-136 377v590z" />
    <glyph glyph-name="v" unicode="v" horiz-adv-x="1290" 
d="M-41 1049h430l256 -572l256 572h430l-563 -1049h-246z" />
    <glyph glyph-name="w" unicode="w" horiz-adv-x="2019" 
d="M-41 1049h418l256 -568l252 568h250l251 -568l256 568h418l-563 -1049h-246l-241 541l-242 -541h-246z" />
    <glyph glyph-name="x" unicode="x" horiz-adv-x="1298" 
d="M43 1049h424l182 -244l182 244h424l-385 -498l449 -551h-438l-232 297l-231 -297h-438l448 551z" />
    <glyph glyph-name="y" unicode="y" horiz-adv-x="1296" 
d="M-41 1049h418l293 -537l250 537h417l-825 -1581h-418l363 696z" />
    <glyph glyph-name="z" unicode="z" horiz-adv-x="1148" 
d="M96 1049h1043l-521 -773h480v-276h-1088l520 772h-434v277z" />
    <glyph glyph-name="braceleft" unicode="{" horiz-adv-x="913" 
d="M123 711q143 0 143 133v547q0 55 8.5 104t31 99t58 86t94 58.5t134.5 22.5h199v-262h-82q-55 0 -92 -39t-37 -100v-526q0 -154 -125 -220q125 -66 125 -219v-526q0 -61 37 -100t92 -39h82v-262h-199q-76 0 -134.5 22.5t-94 58.5t-58 86t-31 99t-8.5 104v547
q0 133 -143 133v193z" />
    <glyph glyph-name="bar" unicode="|" horiz-adv-x="559" 
d="M123 1761h313v-1761h-313v1761z" />
    <glyph glyph-name="braceright" unicode="}" horiz-adv-x="913" 
d="M123 1761h199q94 0 160.5 -33t101 -89.5t49 -117t14.5 -130.5v-547q0 -133 144 -133v-193q-144 0 -144 -133v-547q0 -70 -14.5 -130.5t-49 -117t-101 -89.5t-160.5 -33h-199v262h82q55 0 92 39t37 100v526q0 153 125 219q-125 66 -125 220v526q0 61 -37 100t-92 39h-82
v262z" />
    <glyph glyph-name="asciitilde" unicode="~" horiz-adv-x="1421" 
d="M123 801l8 16t23.5 39t39 55.5t53 59t66.5 55.5t79.5 39t92.5 16t88.5 -8t82 -26.5t66 -33t69.5 -42.5q95 -64 145 -64q33 0 63 16.5t49 40t33.5 47t20.5 39.5l6 17l190 -168q-5 -11 -15.5 -30t-46 -67.5t-74.5 -85.5t-100.5 -67.5t-125.5 -30.5q-47 0 -88.5 8.5
t-81 26.5t-65.5 33t-66 41q-98 66 -150 66q-33 0 -63 -16.5t-49 -40t-33.5 -47t-20.5 -39.5l-6 -17z" />
    <glyph glyph-name="exclamdown" unicode="&#xa1;" horiz-adv-x="714" 
d="M539 -532h-363l49 1208h264zM356 793q-97 0 -165 68.5t-68 166.5q0 97 68 165.5t165 68.5q98 0 167 -68.5t69 -165.5q0 -98 -69 -166.5t-167 -68.5z" />
    <glyph glyph-name="cent" unicode="&#xa2;" horiz-adv-x="1005" 
d="M446 1303h222v-222q58 -3 111.5 -14t88.5 -25t62 -27.5t39 -22.5l12 -9l-123 -248q-8 5 -22 13.5t-60 22t-94 13.5q-103 0 -176.5 -75.5t-73.5 -182.5q0 -108 73.5 -184t176.5 -76q48 0 92 12t64 24l20 13l123 -252q-10 -7 -29 -18.5t-84.5 -35.5t-138.5 -34v-239h-221
v248q-194 41 -327.5 192t-133.5 346q0 181 113 326.5t286 202.5v252z" />
    <glyph glyph-name="sterling" unicode="&#xa3;" horiz-adv-x="1533" 
d="M113 793h209q-107 169 -107 350q0 121 37.5 225.5t108 183.5t181.5 124.5t249 45.5q77 0 145.5 -13.5t119 -36t94 -51.5t73 -61t53 -64.5t37.5 -61.5t23 -51.5t12 -36.5l4 -13l-324 -157q-2 10 -5.5 25.5t-21 56t-41 71.5t-68.5 56.5t-101 25.5q-93 0 -144 -74t-51 -194
q0 -48 4.5 -88.5t18 -81t20.5 -59.5t29 -65t26 -56h355v-201h-281q6 -43 6 -94q0 -43 -14 -84.5t-28 -61.5l-15 -20q10 0 59.5 -17t122 -34t139.5 -17q33 0 59 15t40 37t23.5 44t12.5 37l3 15l280 -140q-1 -6 -3.5 -17t-13.5 -42.5t-27 -60t-46 -63.5t-67 -60.5t-94 -42.5
t-124 -17q-108 0 -226.5 30t-225 59.5t-185.5 29.5q-37 0 -61 -22t-29 -44l-6 -22h-235q0 44 21.5 104.5t58.5 119.5t95.5 100t123.5 41q32 46 32 118q0 49 -24 109h-307v201z" />
    <glyph glyph-name="yen" unicode="&#xa5;" horiz-adv-x="1564" 
d="M-33 1690h463l352 -541l353 541h462l-532 -797h344v-272h-434v-123h434v-273h-434v-225h-385v225h-436v273h436v123h-436v272h346z" />
    <glyph glyph-name="brokenbar" unicode="&#xa6;" horiz-adv-x="559" 
d="M123 1761h313v-680h-313v680zM123 680h313v-680h-313v680z" />
    <glyph glyph-name="section" unicode="&#xa7;" horiz-adv-x="1310" 
d="M47 565q6 117 77.5 215t197.5 154q-95 68 -139 151.5t-44 206.5q0 85 31.5 160.5t94 136t166 96t237.5 35.5q70 0 131.5 -12.5t106.5 -33.5t83.5 -48.5t64 -58t45.5 -61t31.5 -58t18.5 -48.5t9 -34l3 -12l-327 -70q0 5 -2 14t-12 32t-26 40.5t-49 32t-77 14.5
q-62 0 -95.5 -31.5t-33.5 -80.5q0 -20 9.5 -39t33 -38.5t45 -35t65 -37.5t72.5 -36t86 -40q200 -94 301.5 -207.5t101.5 -279.5q-6 -117 -77 -215t-197 -154q94 -70 138 -153.5t44 -204.5q0 -57 -15.5 -112.5t-56 -114t-103 -102t-164.5 -71.5t-232 -28q-97 0 -179.5 21.5
t-137 56t-97 76t-66 83.5t-39 76.5t-19.5 55.5l-5 22l328 70q2 -6 6 -17t21.5 -38t39.5 -48t61.5 -38t86.5 -17q87 0 127.5 32t40.5 81q0 21 -9 39.5t-32.5 38.5t-44 34.5t-64.5 37t-71 35.5t-86 40q-98 46 -168.5 93.5t-125.5 106t-82.5 130.5t-27.5 157zM383 625
q2 -29 20 -57t41.5 -49t63.5 -45t69.5 -39t75.5 -36q5 -2 17 -7.5t18 -8.5l47 -23q175 46 183 172q-2 29 -20 57t-41.5 49t-64 45t-69.5 38.5t-76 36.5q-5 2 -17 7.5t-18 8.5l-49 23q-173 -50 -180 -172z" />
    <glyph glyph-name="dieresis" unicode="&#xa8;" horiz-adv-x="1150" 
d="M332 1620q78 0 133 -55t55 -133t-55 -133.5t-133 -55.5t-133.5 55.5t-55.5 133.5t55.5 133t133.5 55zM819 1620q78 0 133.5 -55t55.5 -133t-55.5 -133.5t-133.5 -55.5t-133 55.5t-55 133.5t55 133t133 55z" />
    <glyph glyph-name="copyright" unicode="&#xa9;" horiz-adv-x="1845" 
d="M47 844q0 178 69.5 340t187 279.5t279.5 187t339 69.5q178 0 340 -69.5t279.5 -187t187 -279.5t69.5 -340q0 -177 -69.5 -339t-187 -279.5t-279.5 -187t-340 -69.5q-177 0 -339 69.5t-279.5 187t-187 279.5t-69.5 339zM281 844q0 -130 51 -248.5t137 -204.5t204.5 -137
t248.5 -51q174 0 322 86t234.5 234t86.5 321q0 174 -86.5 322t-234.5 234.5t-322 86.5q-173 0 -321 -86.5t-234 -234.5t-86 -322zM514 846q0 117 63.5 217.5t166.5 157.5t217 57q78 0 144.5 -18t91 -32t32.5 -22l-88 -182q-69 33 -137 33q-83 0 -142 -60.5t-59 -146.5
q0 -89 58.5 -149t142.5 -60q80 0 135 33q16 -33 45.5 -92.5t44.5 -92.5q-12 -8 -35 -19t-93 -29.5t-140 -18.5q-115 0 -217.5 56t-166 154.5t-63.5 213.5z" />
    <glyph glyph-name="ordfeminine" unicode="&#xaa;" horiz-adv-x="1048" 
d="M143 1376q0 145 91.5 244.5t232.5 99.5q128 0 213 -82v62h227v-647h-227v69q-90 -90 -213 -90q-141 0 -232.5 99.5t-91.5 244.5zM383 1376q0 -67 42 -110t110 -43q64 0 106.5 43.5t42.5 109.5q0 67 -42.5 110.5t-106.5 43.5q-65 0 -108.5 -43.5t-43.5 -110.5z" />
    <glyph glyph-name="guillemotleft" unicode="&#xab;" horiz-adv-x="1280" 
d="M467 1081l190 -149l-282 -363l282 -362l-190 -150l-399 512zM979 1081l190 -149l-282 -363l282 -362l-190 -150l-399 512z" />
    <glyph glyph-name="registered" unicode="&#xae;" horiz-adv-x="1011" 
d="M47 1260q0 190 134.5 325t322.5 135q126 0 232 -61.5t167.5 -167.5t61.5 -231q0 -189 -134.5 -323t-326.5 -134q-92 0 -176.5 36.5t-146 97.5t-98 145.5t-36.5 177.5zM170 1260q0 -138 98.5 -236t235.5 -98q141 0 239.5 98t98.5 236q0 140 -98.5 238.5t-239.5 98.5
q-137 0 -235.5 -99t-98.5 -238zM365 1479h157q66 0 107 -34t41 -99q0 -48 -24.5 -81.5t-65.5 -47.5l139 -168h-125l-123 159h-8v-159h-98v430zM463 1401v-115h29q73 0 73 57q0 58 -73 58h-29z" />
    <glyph glyph-name="macron" unicode="&#xaf;" horiz-adv-x="1122" 
d="M143 1544h836v-246h-836v246z" />
    <glyph glyph-name="degree" unicode="&#xb0;" horiz-adv-x="761" 
d="M143 1581q0 93 68.5 152t169.5 59t169 -59t68 -152q0 -92 -66.5 -151.5t-170.5 -59.5q-105 0 -171.5 59t-66.5 152zM293 1581q0 -39 24.5 -66.5t63.5 -27.5q38 0 64 27.5t26 66.5q0 40 -26 66t-64 26q-37 0 -62.5 -26.5t-25.5 -65.5z" />
    <glyph glyph-name="plusminus" unicode="&#xb1;" horiz-adv-x="1294" 
d="M492 1372h311v-317h368v-312h-368v-317h-311v317h-369v312h369v317zM123 313h1048v-313h-1048v313z" />
    <glyph glyph-name="twosuperior" unicode="&#xb2;" horiz-adv-x="546" 
d="M70 1530q3 8 8 21t25.5 46t46 58t69.5 46t94 21q64 0 112.5 -16.5t75 -40.5t43 -57.5t21 -60.5t4.5 -56q0 -44 -24 -91.5t-58.5 -85t-68.5 -68.5t-58 -48l-24 -16h244v-131h-514v86q14 9 37 25.5t81.5 63t103.5 88.5t81.5 92.5t36.5 84.5q0 10 -1 20t-6.5 26t-14.5 28
t-27.5 21t-43.5 9q-32 0 -61.5 -31.5t-43.5 -63.5l-13 -32z" />
    <glyph glyph-name="threesuperior" unicode="&#xb3;" horiz-adv-x="518" 
d="M51 1579q1 6 4.5 15.5t19 33.5t36.5 43t62 34t91 15q94 0 153.5 -52.5t59.5 -135.5q0 -79 -57 -121q84 -51 84 -147q0 -93 -68.5 -153t-173.5 -60q-56 0 -101.5 16.5t-70.5 39.5t-42 46.5t-22 40.5l-6 16l136 66q0 -4 1.5 -10.5t8 -23.5t16.5 -30t31.5 -23.5t48.5 -10.5
q41 0 66.5 23t25.5 63q0 41 -26.5 67.5t-65.5 26.5l-29 -4v96h33q30 0 54 23.5t24 56.5q0 31 -24 52.5t-56 21.5q-36 0 -60 -20.5t-30 -41.5l-6 -20z" />
    <glyph glyph-name="acute" unicode="&#xb4;" horiz-adv-x="1159" 
d="M279 1360l415 360l187 -235l-488 -283z" />
    <glyph glyph-name="mu" unicode="&#xb5;" horiz-adv-x="1415" 
d="M164 1049h362v-594q0 -82 52.5 -143.5t136.5 -61.5q82 0 148.5 63.5t66.5 141.5v594h362v-1049h-362v109q-149 -142 -305 -142q-33 0 -99 8v-303h-424q0 101 31 335.5t31 420.5v621z" />
    <glyph glyph-name="paragraph" unicode="&#xb6;" horiz-adv-x="1449" 
d="M47 1169q0 145 64.5 263t188 188t284.5 70h743v-1690h-211v1477h-125v-1477h-211v627h-196q-120 0 -222.5 44.5t-170.5 119t-106 172.5t-38 206z" />
    <glyph glyph-name="periodcentered" unicode="&#xb7;" horiz-adv-x="714" 
d="M356 786q98 0 167 -68.5t69 -166.5q0 -97 -69 -165.5t-167 -68.5q-97 0 -165 68.5t-68 165.5q0 98 68 166.5t165 68.5z" />
    <glyph glyph-name="cedilla" unicode="&#xb8;" horiz-adv-x="913" 
d="M408 53l143 -45l-45 -137q44 0 89 -13t85 -38t65 -66.5t25 -91.5q0 -51 -17 -96t-52.5 -84t-97.5 -61.5t-144 -22.5q-52 0 -103.5 17.5t-88 42.5t-66 50t-43.5 42l-15 18l148 110q3 -4 8.5 -10.5t23.5 -23t36.5 -29t46 -23t53.5 -10.5q53 0 77.5 23.5t24.5 56.5
q0 44 -39.5 68t-87.5 24q-33 0 -59 -4.5t-35 -9.5l-10 -4l-21 16z" />
    <glyph glyph-name="onesuperior" unicode="&#xb9;" horiz-adv-x="286" 
d="M18 1690h250v-639h-145v493h-105v146z" />
    <glyph glyph-name="ordmasculine" unicode="&#xba;" horiz-adv-x="1067" 
d="M150 1374q0 151 110.5 248.5t276.5 97.5q163 0 275 -98t112 -248q0 -149 -110 -247.5t-277 -98.5q-175 0 -281 97.5t-106 248.5zM389 1374q0 -67 40 -110t108 -43q66 0 108.5 43.5t42.5 109.5q0 67 -43.5 110.5t-107.5 43.5q-63 0 -105.5 -43.5t-42.5 -110.5z" />
    <glyph glyph-name="guillemotright" unicode="&#xbb;" horiz-adv-x="1280" 
d="M111 932l190 149l399 -512l-399 -512l-190 150l282 362zM623 932l190 149l399 -512l-399 -512l-190 150l282 362z" />
    <glyph glyph-name="onequarter" unicode="&#xbc;" horiz-adv-x="1794" 
d="M207 0l983 1690h242l-983 -1690h-242zM123 1690h385v-983h-223v761h-162v222zM915 207v67l474 709h223v-580h112v-196h-112v-207h-211v207h-486zM1223 403h178v281z" />
    <glyph glyph-name="onehalf" unicode="&#xbd;" horiz-adv-x="1935" 
d="M207 0l983 1690h242l-983 -1690h-242zM123 1690h385v-983h-223v761h-162v222zM1100 705q2 6 6 16t19 39.5t32.5 56t48 59t65 56t83.5 39.5t102 16q95 0 166 -24.5t110 -60t62.5 -85t30 -89t6.5 -83.5q0 -46 -19 -95.5t-49 -92t-66.5 -83.5t-73 -73t-66.5 -56t-49 -37
l-19 -13h358v-195h-753v125q20 14 54 38t120 92.5t151.5 130.5t119.5 135.5t54 123.5q0 15 -1.5 30t-9.5 39.5t-21.5 42t-41 31t-63.5 13.5q-30 0 -58.5 -19.5t-48 -46.5t-35 -54.5t-22.5 -46.5l-8 -20z" />
    <glyph glyph-name="threequarters" unicode="&#xbe;" horiz-adv-x="2000" 
d="M414 0l983 1690h241l-983 -1690h-241zM1122 207v67l473 709h224v-580h112v-196h-112v-207h-211v207h-486zM1430 403h178v281zM100 1485q2 9 7 23t28 50.5t55 64t92.5 50.5t135.5 23q137 0 226 -79t89 -200q0 -113 -86 -180q123 -75 123 -221q0 -137 -100.5 -226.5
t-255.5 -89.5q-83 0 -150 24.5t-104.5 59.5t-62.5 70t-33 60l-9 24l201 98q1 -6 2.5 -16t11.5 -35t25.5 -44.5t46.5 -35.5t72 -16q61 0 99 34t38 93q0 62 -39.5 101.5t-97.5 39.5q-11 0 -22 -1.5t-16 -3.5l-5 -1v141h49q45 0 80 35.5t35 87.5q0 45 -36 76t-83 31
q-34 0 -61 -12.5t-42 -30t-25 -35.5t-13 -30l-3 -13z" />
    <glyph glyph-name="questiondown" unicode="&#xbf;" horiz-adv-x="1220" 
d="M1169 -137q-12 -61 -37.5 -118.5t-72 -114.5t-107 -99t-149 -68t-191.5 -26q-118 0 -216 34t-161.5 88t-107 123t-62 136.5t-18.5 130.5q0 67 23 139t69 143t127 127.5t185 81.5v164h337v-483q-68 16 -176 16q-51 0 -91.5 -14t-64.5 -34.5t-39.5 -47t-21.5 -49.5t-6 -43
q0 -27 10.5 -57t33.5 -61.5t69.5 -52t109.5 -20.5q52 0 93.5 10.5t68 26.5t46.5 40t30.5 45t19.5 48zM621 1190q98 0 166.5 -69t68.5 -167q0 -97 -68.5 -165t-166.5 -68q-97 0 -165.5 68t-68.5 165q0 98 68.5 167t165.5 69z" />
    <glyph glyph-name="Agrave" unicode="&#xc0;" horiz-adv-x="1605" 
d="M625 1690h356l682 -1690h-414l-125 338h-643l-125 -338h-413zM803 1167l-191 -491h381zM315 2124l187 235l416 -360l-115 -158z" />
    <glyph glyph-name="Aacute" unicode="&#xc1;" horiz-adv-x="1605" 
d="M625 1690h356l682 -1690h-414l-125 338h-643l-125 -338h-413zM803 1167l-191 -491h381zM688 1999l416 360l186 -235l-487 -283z" />
    <glyph glyph-name="Acircumflex" unicode="&#xc2;" horiz-adv-x="1605" 
d="M625 1690h356l682 -1690h-414l-125 338h-643l-125 -338h-413zM803 1167l-191 -491h381zM350 2028l453 331l452 -331l-139 -187l-313 230l-314 -230z" />
    <glyph glyph-name="Atilde" unicode="&#xc3;" horiz-adv-x="1605" 
d="M625 1690h356l682 -1690h-414l-125 338h-643l-125 -338h-413zM803 1167l-191 -491h381zM215 2054l8 16t23.5 39t39 56t53.5 59t67 55.5t79.5 39.5t92.5 16t88 -8t82 -27.5t65 -33t70 -42.5q94 -63 145 -63q33 0 63 16.5t49 39.5t33.5 46.5t20.5 40.5l6 16l191 -168
l-8 -16t-23.5 -39t-39 -55.5t-53.5 -59t-67 -55.5t-79.5 -39t-92.5 -16q-61 0 -119.5 17.5t-93.5 36.5t-88 54q-98 66 -149 66q-33 0 -63 -16.5t-49 -40t-33.5 -47t-20.5 -40.5l-6 -16z" />
    <glyph glyph-name="Adieresis" unicode="&#xc4;" horiz-adv-x="1605" 
d="M625 1690h356l682 -1690h-414l-125 338h-643l-125 -338h-413zM803 1167l-191 -491h381zM559 2259q78 0 133.5 -55t55.5 -133t-55.5 -133.5t-133.5 -55.5t-133 55.5t-55 133.5t55 133t133 55zM1047 2259q78 0 133 -55t55 -133t-55 -133.5t-133 -55.5t-133.5 55.5
t-55.5 133.5t55.5 133t133.5 55z" />
    <glyph glyph-name="Aring" unicode="&#xc5;" horiz-adv-x="1605" 
d="M625 1690h356l682 -1690h-414l-125 338h-643l-125 -338h-413zM803 1167l-191 -491h381zM473 2140q0 126 95 208.5t235 82.5q141 0 235.5 -82.5t94.5 -208.5q0 -129 -92.5 -211t-237.5 -82q-147 0 -238.5 81.5t-91.5 211.5zM678 2140q0 -55 35 -93t90 -38q53 0 89 38
t36 93q0 53 -36.5 90t-88.5 37q-51 0 -88 -37.5t-37 -89.5z" />
    <glyph glyph-name="AE" unicode="&#xc6;" horiz-adv-x="1951" 
d="M707 1690h1146v-338h-581v-336h557v-338h-557v-340h581v-338h-966v338h-395l-144 -338h-414zM627 676h260v618z" />
    <glyph glyph-name="Ccedilla" unicode="&#xc7;" horiz-adv-x="1544" 
d="M49 844q0 142 49 276.5t136 242t201 188.5t251 125t279 44q103 0 198 -16t157 -39t109.5 -45.5t68.5 -38.5l22 -16l-164 -328q-6 4 -16 11t-44 25t-70 32t-91.5 25t-110.5 11q-112 0 -206 -30t-157.5 -80t-108 -115t-65 -134t-20.5 -138q0 -70 20.5 -139t65 -134
t108 -115t157.5 -80t206 -30q55 0 109.5 11t93 26t69 30.5t45.5 26.5l15 11l164 -328q-8 -6 -22.5 -16.5t-67 -37.5t-111.5 -47.5t-155 -37.5t-199 -17q-68 0 -123 8l-35 -104q44 0 89 -13t85 -38t65 -66.5t25 -91.5q0 -51 -17 -96t-52.5 -84t-97.5 -61.5t-144 -22.5
q-52 0 -103.5 17.5t-88 42.5t-66 50t-44.5 42l-14 18l148 110q3 -4 8.5 -10.5t23.5 -23t36.5 -29t46 -23t53.5 -10.5q53 0 77.5 23.5t24.5 56.5q0 44 -39.5 68t-87.5 24q-33 0 -59 -4.5t-36 -9.5l-9 -4l-21 16l84 258q-181 57 -326.5 178.5t-232 293.5t-86.5 362z" />
    <glyph glyph-name="Egrave" unicode="&#xc8;" horiz-adv-x="1187" 
d="M123 1690h967v-338h-582v-336h557v-338h-557v-340h582v-338h-967v1690zM244 2124l186 235l416 -360l-115 -158z" />
    <glyph glyph-name="Eacute" unicode="&#xc9;" horiz-adv-x="1187" 
d="M123 1690h967v-338h-582v-336h557v-338h-557v-340h582v-338h-967v1690zM367 1999l415 360l187 -235l-488 -283z" />
    <glyph glyph-name="Ecircumflex" unicode="&#xca;" horiz-adv-x="1187" 
d="M123 1690h967v-338h-582v-336h557v-338h-557v-340h582v-338h-967v1690zM154 2028l452 331l453 -331l-139 -187l-314 230l-313 -230z" />
    <glyph glyph-name="Edieresis" unicode="&#xcb;" horiz-adv-x="1187" 
d="M123 1690h967v-338h-582v-336h557v-338h-557v-340h582v-338h-967v1690zM367 2259q78 0 133 -55t55 -133t-55 -133.5t-133 -55.5t-133.5 55.5t-55.5 133.5t55.5 133t133.5 55zM854 2259q78 0 133 -55t55 -133t-55 -133.5t-133 -55.5t-133 55.5t-55 133.5t55 133t133 55z
" />
    <glyph glyph-name="Igrave" unicode="&#xcc;" horiz-adv-x="630" 
d="M123 1690h385v-1690h-385v1690zM-172 2124l186 235l416 -360l-115 -158z" />
    <glyph glyph-name="Iacute" unicode="&#xcd;" horiz-adv-x="630" 
d="M123 1690h385v-1690h-385v1690zM201 1999l415 360l187 -235l-488 -283z" />
    <glyph glyph-name="Icircumflex" unicode="&#xce;" horiz-adv-x="630" 
d="M123 1690h385v-1690h-385v1690zM-137 2028l452 331l453 -331l-139 -187l-314 230l-313 -230z" />
    <glyph glyph-name="Idieresis" unicode="&#xcf;" horiz-adv-x="630" 
d="M123 1690h385v-1690h-385v1690zM72 2259q78 0 133 -55t55 -133t-55 -133.5t-133 -55.5t-133.5 55.5t-55.5 133.5t55.5 133t133.5 55zM559 2259q78 0 133.5 -55t55.5 -133t-55.5 -133.5t-133.5 -55.5t-133 55.5t-55 133.5t55 133t133 55z" />
    <glyph glyph-name="Eth" unicode="&#xd0;" horiz-adv-x="1511" 
d="M33 688v313h90v689h489q172 0 328 -63.5t271.5 -174t184 -269.5t68.5 -339q0 -181 -68 -339.5t-183.5 -268.5t-271.5 -173t-329 -63h-489v688h-90zM508 1346v-345h301v-313h-301v-344h59q211 0 345.5 142.5t136.5 357.5q0 141 -60 255t-170.5 180.5t-251.5 66.5h-59z" />
    <glyph glyph-name="Ntilde" unicode="&#xd1;" horiz-adv-x="1691" 
d="M123 1690h385l676 -1049v1049h385v-1690h-385l-676 1049v-1049h-385v1690zM258 2062l8 16t23.5 39t39 56t53.5 59t67 55.5t79.5 39.5t92.5 16t88 -8t82 -27.5t65 -33t70 -42.5q94 -63 145 -63q33 0 63 16.5t49 40t33.5 47t20.5 39.5l6 17l191 -168l-8 -16t-23.5 -39
t-39 -56t-53.5 -59t-67 -55.5t-79.5 -39.5t-92.5 -16t-88.5 8.5t-81 26.5t-65.5 33t-66 41q-97 65 -149 65q-33 0 -63 -16.5t-49 -40t-33.5 -47t-20.5 -40.5l-6 -16z" />
    <glyph glyph-name="Ograve" unicode="&#xd2;" horiz-adv-x="1798" 
d="M537 2124l186 235l416 -360l-115 -158zM47 844q0 182 68 345t182.5 279t271.5 184t330 68t330 -68t271.5 -184t182.5 -279t68 -345t-68 -345t-182.5 -279.5t-271.5 -184.5t-330 -68t-330 68t-271.5 184.5t-182.5 279.5t-68 345zM463 844q0 -77 16.5 -149.5t52 -137.5
t85.5 -113.5t123 -77t159 -28.5t159 28.5t123 77t85.5 113.5t52 137.5t16.5 149.5t-16.5 149.5t-52 137.5t-85.5 113.5t-123 77t-159 28.5t-159 -28.5t-123 -77t-85.5 -113.5t-52 -137.5t-16.5 -149.5z" />
    <glyph glyph-name="Oacute" unicode="&#xd3;" horiz-adv-x="1798" 
d="M659 1999l416 360l187 -235l-488 -283zM47 844q0 182 68 345t182.5 279t271.5 184t330 68t330 -68t271.5 -184t182.5 -279t68 -345t-68 -345t-182.5 -279.5t-271.5 -184.5t-330 -68t-330 68t-271.5 184.5t-182.5 279.5t-68 345zM463 844q0 -77 16.5 -149.5t52 -137.5
t85.5 -113.5t123 -77t159 -28.5t159 28.5t123 77t85.5 113.5t52 137.5t16.5 149.5t-16.5 149.5t-52 137.5t-85.5 113.5t-123 77t-159 28.5t-159 -28.5t-123 -77t-85.5 -113.5t-52 -137.5t-16.5 -149.5z" />
    <glyph glyph-name="Ocircumflex" unicode="&#xd4;" horiz-adv-x="1798" 
d="M446 2028l453 331l453 -331l-140 -187l-313 230l-313 -230zM47 844q0 182 68 345t182.5 279t271.5 184t330 68t330 -68t271.5 -184t182.5 -279t68 -345t-68 -345t-182.5 -279.5t-271.5 -184.5t-330 -68t-330 68t-271.5 184.5t-182.5 279.5t-68 345zM463 844
q0 -77 16.5 -149.5t52 -137.5t85.5 -113.5t123 -77t159 -28.5t159 28.5t123 77t85.5 113.5t52 137.5t16.5 149.5t-16.5 149.5t-52 137.5t-85.5 113.5t-123 77t-159 28.5t-159 -28.5t-123 -77t-85.5 -113.5t-52 -137.5t-16.5 -149.5z" />
    <glyph glyph-name="Otilde" unicode="&#xd5;" horiz-adv-x="1798" 
d="M311 2032l8 16t23.5 39t39 55.5t53.5 59t67 55.5t79.5 39t92.5 16q61 0 120 -18t92.5 -36.5t92.5 -55.5q95 -64 145 -64q33 0 63 16.5t49 40t33.5 47t20.5 40.5l6 16l191 -168l-8 -16t-23.5 -39t-39 -56t-53.5 -59t-67 -55.5t-79.5 -39.5t-92.5 -16t-88.5 8.5t-81 26.5
t-65.5 33t-66 41q-97 65 -149 65q-33 0 -63 -16.5t-49 -39.5t-33.5 -46.5t-20.5 -40.5l-6 -16zM47 844q0 182 68 345t182.5 279t271.5 184t330 68t330 -68t271.5 -184t182.5 -279t68 -345t-68 -345t-182.5 -279.5t-271.5 -184.5t-330 -68t-330 68t-271.5 184.5t-182.5 279.5
t-68 345zM463 844q0 -77 16.5 -149.5t52 -137.5t85.5 -113.5t123 -77t159 -28.5t159 28.5t123 77t85.5 113.5t52 137.5t16.5 149.5t-16.5 149.5t-52 137.5t-85.5 113.5t-123 77t-159 28.5t-159 -28.5t-123 -77t-85.5 -113.5t-52 -137.5t-16.5 -149.5z" />
    <glyph glyph-name="Odieresis" unicode="&#xd6;" horiz-adv-x="1798" 
d="M655 2259q78 0 133.5 -55t55.5 -133t-55.5 -133.5t-133.5 -55.5t-133 55.5t-55 133.5t55 133t133 55zM1143 2259q78 0 133 -55t55 -133t-55 -133.5t-133 -55.5t-133.5 55.5t-55.5 133.5t55.5 133t133.5 55zM47 844q0 182 68 345t182.5 279t271.5 184t330 68t330 -68
t271.5 -184t182.5 -279t68 -345t-68 -345t-182.5 -279.5t-271.5 -184.5t-330 -68t-330 68t-271.5 184.5t-182.5 279.5t-68 345zM463 844q0 -77 16.5 -149.5t52 -137.5t85.5 -113.5t123 -77t159 -28.5t159 28.5t123 77t85.5 113.5t52 137.5t16.5 149.5t-16.5 149.5t-52 137.5
t-85.5 113.5t-123 77t-159 28.5t-159 -28.5t-123 -77t-85.5 -113.5t-52 -137.5t-16.5 -149.5z" />
    <glyph glyph-name="multiply" unicode="&#xd7;" horiz-adv-x="1294" 
d="M958 1382l222 -219l-312 -313l312 -311l-222 -224l-311 314l-311 -314l-221 224l311 311l-311 313l221 219l311 -311z" />
    <glyph glyph-name="Oslash" unicode="&#xd8;" horiz-adv-x="1978" 
d="M227 844q0 182 68 345t182.5 279t271.5 184t330 68q226 0 420 -112l111 139l229 -176l-119 -150q100 -116 155.5 -264.5t55.5 -312.5q0 -182 -68 -345t-182.5 -279.5t-271.5 -184.5t-330 -68q-230 0 -424 115l-108 -137l-230 176l117 147q-99 116 -153 264t-54 312z
M1516 844q0 134 -54 254l-571 -719q80 -41 188 -41q86 0 159 28.5t123.5 77t86 113.5t52 137.5t16.5 149.5zM643 844q0 -137 49 -250l570 717q-80 39 -183 39q-86 0 -159 -28.5t-123 -77t-85.5 -113.5t-52 -137.5t-16.5 -149.5z" />
    <glyph glyph-name="Ugrave" unicode="&#xd9;" horiz-adv-x="1523" 
d="M102 1690h385v-979q0 -140 30.5 -220.5t88.5 -112.5t156 -32t156 32t88 112.5t30 220.5v979h385v-1092q0 -312 -167.5 -471.5t-491.5 -159.5t-492 159.5t-168 471.5v1092zM399 2124l187 235l415 -360l-114 -158z" />
    <glyph glyph-name="Uacute" unicode="&#xda;" horiz-adv-x="1523" 
d="M102 1690h385v-979q0 -140 30.5 -220.5t88.5 -112.5t156 -32t156 32t88 112.5t30 220.5v979h385v-1092q0 -312 -167.5 -471.5t-491.5 -159.5t-492 159.5t-168 471.5v1092zM522 1999l416 360l186 -235l-487 -283z" />
    <glyph glyph-name="Ucircumflex" unicode="&#xdb;" horiz-adv-x="1523" 
d="M102 1690h385v-979q0 -140 30.5 -220.5t88.5 -112.5t156 -32t156 32t88 112.5t30 220.5v979h385v-1092q0 -312 -167.5 -471.5t-491.5 -159.5t-492 159.5t-168 471.5v1092zM309 2028l453 331l452 -331l-139 -187l-313 230l-313 -230z" />
    <glyph glyph-name="Udieresis" unicode="&#xdc;" horiz-adv-x="1523" 
d="M102 1690h385v-979q0 -140 30.5 -220.5t88.5 -112.5t156 -32t156 32t88 112.5t30 220.5v979h385v-1092q0 -312 -167.5 -471.5t-491.5 -159.5t-492 159.5t-168 471.5v1092zM518 2259q78 0 133.5 -55t55.5 -133t-55.5 -133.5t-133.5 -55.5t-133 55.5t-55 133.5t55 133
t133 55zM1006 2259q78 0 133 -55t55 -133t-55 -133.5t-133 -55.5t-133.5 55.5t-55.5 133.5t55.5 133t133.5 55z" />
    <glyph glyph-name="Yacute" unicode="&#xdd;" horiz-adv-x="1515" 
d="M-57 1690h463l352 -541l352 541h463l-623 -932v-758h-385v758zM498 1999l415 360l187 -235l-488 -283z" />
    <glyph glyph-name="Thorn" unicode="&#xde;" horiz-adv-x="1363" 
d="M123 1690h385v-314h231q168 0 296.5 -56t205 -175t76.5 -289q0 -128 -44 -231.5t-121.5 -171t-183 -104t-229.5 -36.5h-231v-313h-385v1690zM508 1069v-448h108q60 0 109 11.5t90 36t63.5 69t22.5 106.5t-22.5 107t-63.5 70t-90 36.5t-109 11.5h-108z" />
    <glyph glyph-name="germandbls" unicode="&#xdf;" horiz-adv-x="1343" 
d="M184 1274q0 149 72.5 269t190.5 184.5t255 64.5q233 0 381 -143.5t148 -358.5q0 -233 -205 -348q128 -59 199 -164.5t71 -255.5q0 -160 -80.5 -287t-224 -197.5t-323.5 -70.5v332q106 0 174.5 67.5t68.5 174.5q0 116 -64 186t-179 70v276q91 0 156 61t65 156
q0 93 -49 145t-138 52q-58 0 -106.5 -49.5t-48.5 -134.5v-1303h-363v666h-135v276h135v332z" />
    <glyph glyph-name="agrave" unicode="&#xe0;" 
d="M49 524q0 114 38.5 216.5t106 177.5t165 119t210.5 44q208 0 344 -133v101h369v-1049h-369v113q-65 -66 -154 -106t-190 -40q-113 0 -210.5 44t-165 119t-106 177.5t-38.5 216.5zM434 524q0 -108 67.5 -178t176.5 -70q106 0 175 70.5t69 177.5t-70.5 177.5t-173.5 70.5
q-104 0 -174 -70t-70 -178zM324 1485l186 235l416 -360l-115 -158z" />
    <glyph glyph-name="aacute" unicode="&#xe1;" 
d="M49 524q0 114 38.5 216.5t106 177.5t165 119t210.5 44q208 0 344 -133v101h369v-1049h-369v113q-65 -66 -154 -106t-190 -40q-113 0 -210.5 44t-165 119t-106 177.5t-38.5 216.5zM434 524q0 -108 67.5 -178t176.5 -70q106 0 175 70.5t69 177.5t-70.5 177.5t-173.5 70.5
q-104 0 -174 -70t-70 -178zM406 1360l415 360l187 -235l-488 -283z" />
    <glyph glyph-name="acircumflex" unicode="&#xe2;" 
d="M49 524q0 114 38.5 216.5t106 177.5t165 119t210.5 44q208 0 344 -133v101h369v-1049h-369v113q-65 -66 -154 -106t-190 -40q-113 0 -210.5 44t-165 119t-106 177.5t-38.5 216.5zM434 524q0 -108 67.5 -178t176.5 -70q106 0 175 70.5t69 177.5t-70.5 177.5t-173.5 70.5
q-104 0 -174 -70t-70 -178zM213 1389l453 331l452 -331l-139 -187l-313 230l-314 -230z" />
    <glyph glyph-name="atilde" unicode="&#xe3;" 
d="M49 524q0 114 38.5 216.5t106 177.5t165 119t210.5 44q208 0 344 -133v101h369v-1049h-369v113q-65 -66 -154 -106t-190 -40q-113 0 -210.5 44t-165 119t-106 177.5t-38.5 216.5zM434 524q0 -108 67.5 -178t176.5 -70q106 0 175 70.5t69 177.5t-70.5 177.5t-173.5 70.5
q-104 0 -174 -70t-70 -178zM78 1423q5 11 15.5 30t46 67.5t74.5 85.5t100.5 67.5t125.5 30.5q47 0 88 -8t82 -27.5t65 -33t70 -42.5q94 -63 146 -63q33 0 63 16.5t49 40t33.5 47t20.5 40.5l6 16l190 -168q-5 -11 -15.5 -30t-46 -67.5t-74.5 -85.5t-100.5 -67.5t-125.5 -30.5
q-47 0 -88.5 8.5t-81 26.5t-65.5 33t-66 41q-97 65 -150 65q-33 0 -63 -16.5t-49 -40t-33.5 -47t-20.5 -39.5l-6 -17z" />
    <glyph glyph-name="adieresis" unicode="&#xe4;" 
d="M49 524q0 114 38.5 216.5t106 177.5t165 119t210.5 44q208 0 344 -133v101h369v-1049h-369v113q-65 -66 -154 -106t-190 -40q-113 0 -210.5 44t-165 119t-106 177.5t-38.5 216.5zM434 524q0 -108 67.5 -178t176.5 -70q106 0 175 70.5t69 177.5t-70.5 177.5t-173.5 70.5
q-104 0 -174 -70t-70 -178zM422 1620q78 0 133 -55t55 -133t-55 -133.5t-133 -55.5t-133.5 55.5t-55.5 133.5t55.5 133t133.5 55zM909 1620q78 0 133.5 -55t55.5 -133t-55.5 -133.5t-133.5 -55.5t-133 55.5t-55 133.5t55 133t133 55z" />
    <glyph glyph-name="aring" unicode="&#xe5;" 
d="M49 524q0 114 38.5 216.5t106 177.5t165 119t210.5 44q208 0 344 -133v101h369v-1049h-369v113q-65 -66 -154 -106t-190 -40q-113 0 -210.5 44t-165 119t-106 177.5t-38.5 216.5zM434 524q0 -108 67.5 -178t176.5 -70q106 0 175 70.5t69 177.5t-70.5 177.5t-173.5 70.5
q-104 0 -174 -70t-70 -178zM336 1501q0 126 95 208.5t235 82.5q141 0 235 -82t94 -209q0 -129 -92 -211t-237 -82q-147 0 -238.5 81.5t-91.5 211.5zM541 1501q0 -55 35 -93t90 -38q53 0 89 38t36 93q0 53 -36.5 90t-88.5 37q-51 0 -88 -37.5t-37 -89.5z" />
    <glyph glyph-name="ae" unicode="&#xe6;" horiz-adv-x="1978" 
d="M102 279q0 146 100.5 241.5t274.5 95.5q209 0 322 -79v75q0 81 -72 131t-158 50q-84 0 -155 -15.5t-100 -31.5l-29 -15l-115 248q5 4 15.5 11t47.5 24.5t79.5 31t112 24.5t144.5 11q116 0 230 -32t200 -97q161 129 369 129q121 0 223 -35.5t178 -104t119 -175.5t43 -242
q0 -37 -2 -49h-762q0 -58 22 -102t57.5 -68.5t73.5 -36.5t75 -12q88 0 139 23.5t117 93.5l262 -131q-164 -275 -545 -275q-233 0 -401 158q-141 -82 -250 -120t-225 -38q-168 0 -279 86t-111 226zM463 309q0 -54 50 -88.5t124 -34.5q70 0 122 38t52 85q0 46 -51.5 80.5
t-122.5 34.5q-75 0 -124.5 -30.5t-49.5 -84.5zM1178 676h399q-12 82 -65 126t-134 44q-91 0 -143 -47.5t-57 -122.5z" />
    <glyph glyph-name="ccedilla" unicode="&#xe7;" horiz-adv-x="1003" 
d="M45 524q0 151 81.5 280t215.5 203t285 74q65 0 125.5 -10t100 -24.5t69.5 -29t44 -24.5l13 -10l-123 -248q-8 5 -22 13.5t-60 22t-94 13.5q-103 0 -176.5 -76.5t-73.5 -183.5q0 -108 73.5 -184t176.5 -76q48 0 92 12t64 24l20 13l123 -252q-5 -4 -14.5 -10t-42.5 -22.5
t-70.5 -29t-98.5 -22.5t-126 -10q-27 0 -39 2l-31 -98q44 0 89 -13t85 -38t65 -66.5t25 -91.5q0 -51 -17 -96t-52.5 -84t-97.5 -61.5t-144 -22.5q-52 0 -103 17.5t-87.5 42.5t-66 50t-43.5 42l-15 18l147 110q3 -4 8.5 -10.5t23.5 -23t36.5 -29t46 -23t53.5 -10.5
q53 0 77.5 23.5t24.5 56.5q0 44 -39.5 68t-87.5 24q-33 0 -59 -4.5t-36 -9.5l-9 -4l-21 16l80 248q-170 57 -282.5 201t-112.5 323z" />
    <glyph glyph-name="egrave" unicode="&#xe8;" horiz-adv-x="1234" 
d="M47 526q0 151 78 279t211 202t289 74q121 0 223 -35.5t178 -104t119 -175.5t43 -242q0 -37 -2 -49h-762q0 -58 22 -102t57.5 -68.5t73 -36.5t74.5 -12q88 0 139 23.5t117 93.5l262 -131q-164 -275 -544 -275q-156 0 -289 75.5t-211 204.5t-78 279zM434 676h400
q-12 82 -65 126t-134 44q-91 0 -143.5 -47.5t-57.5 -122.5zM283 1485l186 235l416 -360l-115 -158z" />
    <glyph glyph-name="eacute" unicode="&#xe9;" horiz-adv-x="1234" 
d="M47 526q0 151 78 279t211 202t289 74q121 0 223 -35.5t178 -104t119 -175.5t43 -242q0 -37 -2 -49h-762q0 -58 22 -102t57.5 -68.5t73 -36.5t74.5 -12q88 0 139 23.5t117 93.5l262 -131q-164 -275 -544 -275q-156 0 -289 75.5t-211 204.5t-78 279zM434 676h400
q-12 82 -65 126t-134 44q-91 0 -143.5 -47.5t-57.5 -122.5zM365 1360l415 360l187 -235l-488 -283z" />
    <glyph glyph-name="ecircumflex" unicode="&#xea;" horiz-adv-x="1234" 
d="M47 526q0 151 78 279t211 202t289 74q121 0 223 -35.5t178 -104t119 -175.5t43 -242q0 -37 -2 -49h-762q0 -58 22 -102t57.5 -68.5t73 -36.5t74.5 -12q88 0 139 23.5t117 93.5l262 -131q-164 -275 -544 -275q-156 0 -289 75.5t-211 204.5t-78 279zM434 676h400
q-12 82 -65 126t-134 44q-91 0 -143.5 -47.5t-57.5 -122.5zM172 1389l453 331l452 -331l-139 -187l-313 230l-314 -230z" />
    <glyph glyph-name="edieresis" unicode="&#xeb;" horiz-adv-x="1234" 
d="M47 526q0 151 78 279t211 202t289 74q121 0 223 -35.5t178 -104t119 -175.5t43 -242q0 -37 -2 -49h-762q0 -58 22 -102t57.5 -68.5t73 -36.5t74.5 -12q88 0 139 23.5t117 93.5l262 -131q-164 -275 -544 -275q-156 0 -289 75.5t-211 204.5t-78 279zM434 676h400
q-12 82 -65 126t-134 44q-91 0 -143.5 -47.5t-57.5 -122.5zM381 1620q78 0 133 -55t55 -133t-55 -133.5t-133 -55.5t-133 55.5t-55 133.5t55 133t133 55zM868 1620q78 0 133.5 -55t55.5 -133t-55.5 -133.5t-133.5 -55.5t-133 55.5t-55 133.5t55 133t133 55z" />
    <glyph glyph-name="igrave" unicode="&#xec;" horiz-adv-x="606" 
d="M123 1049h360v-1049h-360v1049zM-184 1485l186 235l416 -360l-115 -158z" />
    <glyph glyph-name="iacute" unicode="&#xed;" horiz-adv-x="606" 
d="M123 1049h360v-1049h-360v1049zM188 1360l416 360l187 -235l-488 -283z" />
    <glyph glyph-name="icircumflex" unicode="&#xee;" horiz-adv-x="606" 
d="M123 1049h360v-1049h-360v1049zM-150 1389l453 331l453 -331l-140 -187l-313 230l-313 -230z" />
    <glyph glyph-name="idieresis" unicode="&#xef;" horiz-adv-x="606" 
d="M123 1049h360v-1049h-360v1049zM59 1620q78 0 133.5 -55t55.5 -133t-55.5 -133.5t-133.5 -55.5t-133 55.5t-55 133.5t55 133t133 55zM547 1620q78 0 133 -55t55 -133t-55 -133.5t-133 -55.5t-133.5 55.5t-55.5 133.5t55.5 133t133.5 55z" />
    <glyph glyph-name="eth" unicode="&#xf0;" horiz-adv-x="1400" 
d="M84 524q0 99 33 189.5t88 156t124 114t142 73t141 24.5q128 0 185 -32q-92 130 -240 235l-170 -168l-158 158l127 127q-57 27 -114 48t-85 29l-28 7l86 307q20 -4 54.5 -13.5t135.5 -47.5t195 -86l150 147l155 -160l-106 -106q88 -62 162.5 -130.5t147 -162.5
t122.5 -197.5t81 -235.5t31 -276q0 -160 -80.5 -287.5t-223.5 -198.5t-322 -71q-282 0 -457.5 156t-175.5 401zM469 524q0 -108 68 -176.5t178 -68.5q106 0 174.5 69t68.5 176v11q-4 103 -74 170t-169 67q-104 0 -175 -70t-71 -178z" />
    <glyph glyph-name="ntilde" unicode="&#xf1;" horiz-adv-x="1353" 
d="M123 1049h362v-109q148 141 306 141q61 0 122 -12t123 -41t109 -72t76.5 -111.5t29.5 -152.5v-692h-362v594q0 82 -52.5 143.5t-136.5 61.5q-82 0 -148.5 -63.5t-66.5 -141.5v-594h-362v1049zM98 1407l8 16t23.5 39t39 56t53.5 59t67 55.5t79.5 39.5t92.5 16t88 -8
t82 -27.5t65 -33t70 -42.5q95 -64 145 -64q33 0 63 16.5t49 40t33.5 47t20.5 39.5l6 17l191 -168l-8 -16t-23.5 -39t-39 -55.5t-53.5 -59t-67 -55.5t-79.5 -39t-92.5 -16q-61 0 -119.5 17.5t-93.5 36.5t-88 54q-98 66 -149 66q-33 0 -63 -16.5t-49 -40t-33.5 -47
t-20.5 -39.5l-6 -17z" />
    <glyph glyph-name="ograve" unicode="&#xf2;" horiz-adv-x="1347" 
d="M332 1485l186 235l416 -360l-115 -158zM47 524q0 121 48.5 225t132 176.5t199.5 114t247 41.5q176 0 318.5 -70t225 -198t82.5 -289t-82.5 -289t-225 -198t-318.5 -70q-131 0 -247 41.5t-199.5 114t-132 176.5t-48.5 225zM428 524q0 -108 71 -178t175 -70t175 70t71 178
t-71 178t-175 70t-175 -70t-71 -178z" />
    <glyph glyph-name="oacute" unicode="&#xf3;" horiz-adv-x="1347" 
d="M414 1360l415 360l187 -235l-488 -283zM47 524q0 121 48.5 225t132 176.5t199.5 114t247 41.5q176 0 318.5 -70t225 -198t82.5 -289t-82.5 -289t-225 -198t-318.5 -70q-131 0 -247 41.5t-199.5 114t-132 176.5t-48.5 225zM428 524q0 -108 71 -178t175 -70t175 70t71 178
t-71 178t-175 70t-175 -70t-71 -178z" />
    <glyph glyph-name="ocircumflex" unicode="&#xf4;" horiz-adv-x="1347" 
d="M221 1389l453 331l452 -331l-139 -187l-313 230l-314 -230zM47 524q0 121 48.5 225t132 176.5t199.5 114t247 41.5q176 0 318.5 -70t225 -198t82.5 -289t-82.5 -289t-225 -198t-318.5 -70q-131 0 -247 41.5t-199.5 114t-132 176.5t-48.5 225zM428 524q0 -108 71 -178
t175 -70t175 70t71 178t-71 178t-175 70t-175 -70t-71 -178z" />
    <glyph glyph-name="otilde" unicode="&#xf5;" horiz-adv-x="1353" 
d="M53 524q0 121 48.5 225t132 176.5t199.5 114t247 41.5q173 0 316 -70t227 -198.5t84 -288.5t-81 -287.5t-224 -198.5t-322 -71q-282 0 -454.5 156t-172.5 401zM434 524q0 -108 68.5 -178t177.5 -70q106 0 176 70.5t70 177.5t-71.5 177.5t-174.5 70.5q-104 0 -175 -70
t-71 -178zM92 1356l8 16t23.5 39t39 55.5t53.5 59t67 55.5t79.5 39t92.5 16q61 0 120 -18t92.5 -36.5t92.5 -55.5q95 -64 145 -64q33 0 63 16.5t49 40t33.5 47t20.5 40.5l6 16l191 -168l-8 -16t-23.5 -39t-39 -55.5t-53.5 -59t-67 -55.5t-79.5 -39t-92.5 -16
q-61 0 -119.5 17.5t-93.5 36.5t-88 54q-98 66 -149 66q-33 0 -63 -16.5t-49 -40t-33.5 -47t-20.5 -40.5l-6 -16z" />
    <glyph glyph-name="odieresis" unicode="&#xf6;" horiz-adv-x="1353" 
d="M53 524q0 121 48.5 225t132 176.5t199.5 114t247 41.5q173 0 316 -70t227 -198.5t84 -288.5t-81 -287.5t-224 -198.5t-322 -71q-282 0 -454.5 156t-172.5 401zM434 524q0 -108 68.5 -178t177.5 -70q106 0 176 70.5t70 177.5t-71.5 177.5t-174.5 70.5q-104 0 -175 -70
t-71 -178zM436 1620q78 0 133.5 -55t55.5 -133t-55.5 -133.5t-133.5 -55.5t-133 55.5t-55 133.5t55 133t133 55zM924 1620q78 0 133 -55t55 -133t-55 -133.5t-133 -55.5t-133.5 55.5t-55.5 133.5t55.5 133t133.5 55z" />
    <glyph glyph-name="divide" unicode="&#xf7;" horiz-adv-x="1294" 
d="M645 1475q69 0 118.5 -49.5t49.5 -118.5t-49.5 -116.5t-118.5 -47.5t-116.5 47.5t-47.5 116.5t47.5 118.5t116.5 49.5zM123 1006h1048v-314h-1048v314zM645 555q69 0 118.5 -49.5t49.5 -118.5t-49.5 -116.5t-118.5 -47.5t-116.5 47.5t-47.5 116.5t47.5 118.5t116.5 49.5z
" />
    <glyph glyph-name="oslash" unicode="&#xf8;" horiz-adv-x="1349" 
d="M49 524q0 121 48.5 225t132 176.5t199.5 114t247 41.5q240 0 411 -129l185 150l92 -111l-172 -139q111 -143 111 -328q0 -121 -48.5 -225t-132 -176.5t-199.5 -114t-247 -41.5q-245 0 -416 129l-186 -149l-92 110l174 142q-107 142 -107 325zM922 524q0 48 -19 94
l-371 -299q61 -43 144 -43q104 0 175 70t71 178zM430 524q0 -51 14 -92l369 299q-59 41 -137 41q-104 0 -175 -70t-71 -178z" />
    <glyph glyph-name="ugrave" unicode="&#xf9;" horiz-adv-x="1343" 
d="M102 1049h363v-502q0 -156 46.5 -220.5t160.5 -64.5t160.5 64.5t46.5 220.5v502h362v-590q0 -262 -136 -377t-433 -115q-298 0 -434 115t-136 377v590zM330 1485l186 235l416 -360l-115 -158z" />
    <glyph glyph-name="uacute" unicode="&#xfa;" horiz-adv-x="1343" 
d="M102 1049h363v-502q0 -156 46.5 -220.5t160.5 -64.5t160.5 64.5t46.5 220.5v502h362v-590q0 -262 -136 -377t-433 -115q-298 0 -434 115t-136 377v590zM412 1360l415 360l187 -235l-488 -283z" />
    <glyph glyph-name="ucircumflex" unicode="&#xfb;" horiz-adv-x="1343" 
d="M102 1049h363v-502q0 -156 46.5 -220.5t160.5 -64.5t160.5 64.5t46.5 220.5v502h362v-590q0 -262 -136 -377t-433 -115q-298 0 -434 115t-136 377v590zM219 1389l453 331l452 -331l-139 -187l-313 230l-314 -230z" />
    <glyph glyph-name="udieresis" unicode="&#xfc;" horiz-adv-x="1343" 
d="M102 1049h363v-502q0 -156 46.5 -220.5t160.5 -64.5t160.5 64.5t46.5 220.5v502h362v-590q0 -262 -136 -377t-433 -115q-298 0 -434 115t-136 377v590zM428 1620q78 0 133 -55t55 -133t-55 -133.5t-133 -55.5t-133 55.5t-55 133.5t55 133t133 55zM915 1620
q78 0 133.5 -55t55.5 -133t-55.5 -133.5t-133.5 -55.5t-133 55.5t-55 133.5t55 133t133 55z" />
    <glyph glyph-name="yacute" unicode="&#xfd;" horiz-adv-x="1296" 
d="M-41 1049h418l293 -537l250 537h417l-825 -1581h-418l363 696zM389 1360l416 360l186 -235l-487 -283z" />
    <glyph glyph-name="thorn" unicode="&#xfe;" 
d="M117 1761h368v-813q136 133 344 133q150 0 270 -75t185.5 -202t65.5 -280t-65.5 -280t-185.5 -202t-270 -75q-101 0 -190 40t-154 106v-645h-368v2293zM477 524q0 -107 69 -177.5t175 -70.5q109 0 176.5 70t67.5 178t-70 178t-174 70q-103 0 -173.5 -70.5t-70.5 -177.5z
" />
    <glyph glyph-name="ydieresis" unicode="&#xff;" horiz-adv-x="1296" 
d="M-41 1051h418l293 -539l250 539h417l-825 -1583h-418l363 696zM426 1620q78 0 133 -55t55 -133t-55 -133.5t-133 -55.5t-133 55.5t-55 133.5t55 133t133 55zM913 1620q78 0 133.5 -55t55.5 -133t-55.5 -133.5t-133.5 -55.5t-133 55.5t-55 133.5t55 133t133 55z" />
    <glyph glyph-name="Amacron" unicode="&#x100;" horiz-adv-x="1605" 
d="M625 1690h356l682 -1690h-414l-125 338h-643l-125 -338h-413zM803 1167l-191 -491h381zM385 2183h836v-246h-836v246z" />
    <glyph glyph-name="amacron" unicode="&#x101;" 
d="M49 524q0 114 38.5 216.5t106 177.5t165 119t210.5 44q208 0 344 -133v101h369v-1049h-369v113q-65 -66 -154 -106t-190 -40q-113 0 -210.5 44t-165 119t-106 177.5t-38.5 216.5zM434 524q0 -108 67.5 -178t176.5 -70q106 0 175 70.5t69 177.5t-70.5 177.5t-173.5 70.5
q-104 0 -174 -70t-70 -178zM248 1544h835v-246h-835v246z" />
    <glyph glyph-name="Abreve" unicode="&#x102;" horiz-adv-x="1605" 
d="M625 1690h356l682 -1690h-414l-125 338h-643l-125 -338h-413zM803 1167l-191 -491h381zM330 2296l258 63q1 -9 3.5 -23t17 -50.5t35.5 -64t63 -50.5t96 -23t96 21.5t63.5 53t35 62.5t16.5 53l4 21l258 -63q-19 -166 -148 -268.5t-325 -102.5t-325 102.5t-148 268.5z" />
    <glyph glyph-name="abreve" unicode="&#x103;" 
d="M49 524q0 114 38.5 216.5t106 177.5t165 119t210.5 44q208 0 344 -133v101h369v-1049h-369v113q-65 -66 -154 -106t-190 -40q-113 0 -210.5 44t-165 119t-106 177.5t-38.5 216.5zM434 524q0 -108 67.5 -178t176.5 -70q106 0 175 70.5t69 177.5t-70.5 177.5t-173.5 70.5
q-104 0 -174 -70t-70 -178zM193 1657l258 63q1 -9 3.5 -23t17 -50.5t35.5 -64t63 -50.5t96 -23q39 0 72.5 11.5t55 30t38 41t25.5 45.5t15 41.5t8 29.5l1 12l258 -63q-19 -166 -148 -268.5t-325 -102.5t-325 102.5t-148 268.5z" />
    <glyph glyph-name="Aogonek" unicode="&#x104;" horiz-adv-x="1605" 
d="M1124 -324q0 125 164 324h-39l-125 338h-643l-125 -338h-413l682 1690h356l682 -1690h-207q-5 -6 -13 -16.5t-29 -43t-37 -65t-29 -77.5t-13 -85q0 -36 23.5 -58t52.5 -22q28 0 54.5 15.5t38.5 31.5l12 15l147 -111q-4 -6 -11.5 -16t-33.5 -35t-56 -44.5t-78.5 -35.5
t-101.5 -16q-43 0 -85.5 13t-82.5 39.5t-65 75t-25 111.5zM803 1167l-191 -491h381z" />
    <glyph glyph-name="aogonek" unicode="&#x105;" 
d="M754 -324q0 125 164 324h-5v113q-65 -66 -154 -106t-190 -40q-113 0 -210.5 44t-165 119t-106 177.5t-38.5 216.5t38.5 216.5t106 177.5t165 119t210.5 44q208 0 344 -133v101h369v-1049h-197q-5 -6 -13 -16.5t-28.5 -43t-36.5 -65t-29 -77.5t-13 -85q0 -36 23 -58
t52 -22q28 0 54 15.5t38 31.5l13 15l147 -111q-4 -6 -11 -16t-33 -35t-56 -44.5t-78.5 -35.5t-101.5 -16q-43 0 -85.5 13t-82.5 39.5t-65 75t-25 111.5zM434 524q0 -108 67.5 -178t176.5 -70q106 0 175 70.5t69 177.5t-70.5 177.5t-173.5 70.5q-104 0 -174 -70t-70 -178z
" />
    <glyph glyph-name="Cacute" unicode="&#x106;" horiz-adv-x="1542" 
d="M47 844q0 142 49 276.5t136 242t201 188.5t251 125t279 44q103 0 198 -16t157 -39t109.5 -45.5t68.5 -38.5l22 -16l-164 -328q-6 4 -16 11t-44 25t-70 32t-91.5 25t-110.5 11q-112 0 -206 -30t-157.5 -80t-108 -115t-65 -134t-20.5 -138q0 -70 20.5 -139t65 -134
t108 -115t157.5 -80t206 -30q55 0 109.5 11t93 26t69 30.5t45.5 26.5l15 11l164 -328q-8 -6 -22.5 -16.5t-67 -37.5t-111.5 -47.5t-155 -37.5t-199 -17q-176 0 -344 70t-293.5 187t-202 280t-76.5 340zM543 1999l415 360l187 -235l-488 -283z" />
    <glyph glyph-name="cacute" unicode="&#x107;" horiz-adv-x="1005" 
d="M47 524q0 151 81.5 280t215.5 203t285 74q65 0 125.5 -10t100 -24.5t69.5 -29t44 -24.5l13 -10l-123 -248q-8 5 -22 13.5t-60 22t-94 13.5q-103 0 -176.5 -76.5t-73.5 -183.5q0 -108 73.5 -184t176.5 -76q48 0 92 12t64 24l20 13l123 -252q-5 -4 -14.5 -10t-42.5 -22.5
t-70.5 -29t-98.5 -22.5t-126 -10q-150 0 -284 74.5t-216 203.5t-82 279zM254 1360l416 360l186 -235l-487 -283z" />
    <glyph glyph-name="Ccaron" unicode="&#x10c;" horiz-adv-x="1542" 
d="M47 844q0 142 49 276.5t136 242t201 188.5t251 125t279 44q103 0 198 -16t157 -39t109.5 -45.5t68.5 -38.5l22 -16l-164 -328q-6 4 -16 11t-44 25t-70 32t-91.5 25t-110.5 11q-112 0 -206 -30t-157.5 -80t-108 -115t-65 -134t-20.5 -138q0 -70 20.5 -139t65 -134
t108 -115t157.5 -80t206 -30q55 0 109.5 11t93 26t69 30.5t45.5 26.5l15 11l164 -328q-8 -6 -22.5 -16.5t-67 -37.5t-111.5 -47.5t-155 -37.5t-199 -17q-176 0 -344 70t-293.5 187t-202 280t-76.5 340zM449 2173l139 186l313 -229l313 229l140 -186l-453 -332z" />
    <glyph glyph-name="ccaron" unicode="&#x10d;" horiz-adv-x="1005" 
d="M47 524q0 151 81.5 280t215.5 203t285 74q65 0 125.5 -10t100 -24.5t69.5 -29t44 -24.5l13 -10l-123 -248q-8 5 -22 13.5t-60 22t-94 13.5q-103 0 -176.5 -76.5t-73.5 -183.5q0 -108 73.5 -184t176.5 -76q48 0 92 12t64 24l20 13l123 -252q-5 -4 -14.5 -10t-42.5 -22.5
t-70.5 -29t-98.5 -22.5t-126 -10q-150 0 -284 74.5t-216 203.5t-82 279zM115 1534l139 186l313 -229l314 229l139 -186l-453 -332z" />
    <glyph glyph-name="Dcaron" unicode="&#x10e;" horiz-adv-x="1511" 
d="M123 1690h489q172 0 328 -63.5t271.5 -174t184 -269.5t68.5 -339q0 -181 -68 -339.5t-183.5 -268.5t-271.5 -173t-329 -63h-489v1690zM508 1346v-1002h59q211 0 345.5 142.5t136.5 357.5q0 141 -60 255t-170.5 180.5t-251.5 66.5h-59zM285 2173l139 186l313 -229l314 229
l139 -186l-453 -332z" />
    <glyph glyph-name="dcaron" unicode="&#x10f;" 
d="M49 524q0 114 38.5 216.5t106 177.5t165 119t210.5 44q208 0 344 -133v813h369v-1761h-369v113q-65 -66 -154 -106t-190 -40q-113 0 -210.5 44t-165 119t-106 177.5t-38.5 216.5zM434 524q0 -108 67.5 -178t176.5 -70q106 0 175 70.5t69 177.5t-70.5 177.5t-173.5 70.5
q-104 0 -174 -70t-70 -178zM1548 1688q76 0 130.5 -54t54.5 -131q0 -233 -267 -452l-82 63q4 4 10.5 11t24.5 30t33 47.5t30.5 62t22.5 74.5q-60 14 -98.5 59t-38.5 105q0 76 53 130.5t127 54.5z" />
    <glyph glyph-name="Dcroat" unicode="&#x110;" horiz-adv-x="1511" 
d="M-45 688v313h168v689h489q172 0 328 -63.5t271.5 -174t184 -269.5t68.5 -339q0 -181 -68 -339.5t-183.5 -268.5t-271.5 -173t-329 -63h-489v688h-168zM508 1346v-345h223v-313h-223v-344h59q211 0 345.5 142.5t136.5 357.5q0 141 -60 255t-170.5 180.5t-251.5 66.5h-59z
" />
    <glyph glyph-name="dcroat" unicode="&#x111;" 
d="M49 524q0 114 38.5 216.5t106 177.5t165 119t210.5 44q208 0 344 -133v338h-256v234h256v241h369v-241h117v-234h-117v-1286h-369v113q-65 -66 -154 -106t-190 -40q-113 0 -210.5 44t-165 119t-106 177.5t-38.5 216.5zM434 524q0 -108 67.5 -178t176.5 -70
q106 0 175 70.5t69 177.5t-70.5 177.5t-173.5 70.5q-104 0 -174 -70t-70 -178z" />
    <glyph glyph-name="Emacron" unicode="&#x112;" horiz-adv-x="1187" 
d="M123 1690h967v-338h-582v-336h557v-338h-557v-340h582v-338h-967v1690zM188 2183h836v-246h-836v246z" />
    <glyph glyph-name="emacron" unicode="&#x113;" horiz-adv-x="1234" 
d="M47 526q0 151 78 279t211 202t289 74q121 0 223 -35.5t178 -104t119 -175.5t43 -242q0 -37 -2 -49h-762q0 -58 22 -102t57.5 -68.5t73 -36.5t74.5 -12q88 0 139 23.5t117 93.5l262 -131q-164 -275 -544 -275q-156 0 -289 75.5t-211 204.5t-78 279zM434 676h400
q-12 82 -65 126t-134 44q-91 0 -143.5 -47.5t-57.5 -122.5zM207 1544h835v-246h-835v246z" />
    <glyph glyph-name="Edotaccent" unicode="&#x116;" horiz-adv-x="1187" 
d="M123 1690h967v-338h-582v-336h557v-338h-557v-340h582v-338h-967v1690zM606 2259q78 0 133.5 -55t55.5 -133t-55.5 -133.5t-133.5 -55.5t-133 55.5t-55 133.5t55 133t133 55z" />
    <glyph glyph-name="edotaccent" unicode="&#x117;" horiz-adv-x="1234" 
d="M47 526q0 151 78 279t211 202t289 74q121 0 223 -35.5t178 -104t119 -175.5t43 -242q0 -37 -2 -49h-762q0 -58 22 -102t57.5 -68.5t73 -36.5t74.5 -12q88 0 139 23.5t117 93.5l262 -131q-164 -275 -544 -275q-156 0 -289 75.5t-211 204.5t-78 279zM434 676h400
q-12 82 -65 126t-134 44q-91 0 -143.5 -47.5t-57.5 -122.5zM625 1620q78 0 133 -55t55 -133t-55 -133.5t-133 -55.5t-133.5 55.5t-55.5 133.5t55.5 133t133.5 55z" />
    <glyph glyph-name="Eogonek" unicode="&#x118;" horiz-adv-x="1187" 
d="M559 -324q0 125 164 324h-600v1690h967v-338h-582v-336h557v-338h-557v-340h582v-338h-199q-5 -6 -13 -16.5t-29 -43t-37 -65t-29 -77.5t-13 -85q0 -36 23.5 -58t52.5 -22q28 0 54 15.5t38 31.5l12 15l148 -111q-4 -6 -11.5 -16t-33.5 -35t-56 -44.5t-78.5 -35.5
t-101.5 -16q-43 0 -85.5 13t-82.5 39.5t-65 75t-25 111.5z" />
    <glyph glyph-name="eogonek" unicode="&#x119;" horiz-adv-x="1234" 
d="M524 -324q0 117 138 293q-19 -2 -37 -2q-156 0 -289 75.5t-211 204.5t-78 279q0 151 78 279t211 202t289 74q121 0 223 -35.5t178 -104t119 -175.5t43 -242q0 -37 -2 -49h-762q0 -58 22 -102t57.5 -68.5t73 -36.5t74.5 -12q88 0 139 23.5t117 93.5l262 -131
q-113 -186 -317 -244q-13 -16 -25.5 -35t-37 -61t-39.5 -92t-15 -97q0 -36 23.5 -58t52.5 -22q28 0 54 15.5t38 31.5l12 15l148 -111q-4 -6 -11.5 -16t-33.5 -35t-56 -44.5t-78.5 -35.5t-101.5 -16q-43 0 -85.5 13t-82.5 39.5t-65 75t-25 111.5zM434 676h400q-12 82 -65 126
t-134 44q-91 0 -143.5 -47.5t-57.5 -122.5z" />
    <glyph glyph-name="Ecaron" unicode="&#x11a;" horiz-adv-x="1187" 
d="M123 1690h967v-338h-582v-336h557v-338h-557v-340h582v-338h-967v1690zM154 2173l139 186l313 -229l314 229l139 -186l-453 -332z" />
    <glyph glyph-name="ecaron" unicode="&#x11b;" horiz-adv-x="1234" 
d="M47 526q0 151 78 279t211 202t289 74q121 0 223 -35.5t178 -104t119 -175.5t43 -242q0 -37 -2 -49h-762q0 -58 22 -102t57.5 -68.5t73 -36.5t74.5 -12q88 0 139 23.5t117 93.5l262 -131q-164 -275 -544 -275q-156 0 -289 75.5t-211 204.5t-78 279zM434 676h400
q-12 82 -65 126t-134 44q-91 0 -143.5 -47.5t-57.5 -122.5zM172 1534l139 186l314 -229l313 229l139 -186l-452 -332z" />
    <glyph glyph-name="Gcommaaccent" unicode="&#x122;" horiz-adv-x="1697" 
d="M47 844q0 180 62.5 341.5t170.5 279t261.5 186.5t328.5 69q414 0 652 -288l-252 -277q-135 217 -377 217q-117 0 -216 -70.5t-156.5 -192t-57.5 -265.5q0 -141 57.5 -261.5t156.5 -190.5t216 -70q67 0 131 21t117.5 59.5t86 100t32.5 136.5v8h-390v297h781v-297
q0 -94 -33 -189.5t-100 -183.5t-159 -156.5t-219 -109.5t-270 -41q-134 0 -260 44.5t-227 125.5t-177 189t-117.5 241.5t-41.5 276.5zM870 -82q77 0 131 -54t54 -130q0 -234 -267 -453l-81 64q4 4 10.5 11t24 30t32.5 47.5t30.5 62t22.5 74.5q-60 14 -98.5 59t-38.5 105
q0 76 53 130t127 54z" />
    <glyph glyph-name="gcommaaccent" unicode="&#x123;" 
d="M434 524q0 -108 67.5 -178t176.5 -70q106 0 175 70.5t69 177.5t-70.5 177.5t-173.5 70.5q-104 0 -174 -70t-70 -178zM913 -2v115q-65 -66 -154 -106t-190 -40q-113 0 -210.5 44t-165 119t-106 177.5t-38.5 216.5t38.5 216.5t106 177.5t165 119t210.5 44q208 0 344 -133
v101h369v-1078q0 -172 -81 -294t-219 -181t-320 -59q-450 0 -582 305l297 145q35 -56 106 -95.5t179 -39.5q40 0 81 13t80.5 39.5t64.5 77t25 116.5zM668 1243q-77 0 -131 54t-54 130q0 234 267 453l81 -63q-4 -4 -10.5 -11t-24 -30t-32.5 -48t-30.5 -62.5t-22.5 -74.5
q60 -14 98.5 -59t38.5 -105q0 -76 -53 -130t-127 -54z" />
    <glyph glyph-name="Imacron" unicode="&#x12a;" horiz-adv-x="630" 
d="M123 1690h385v-1690h-385v1690zM-102 2183h835v-246h-835v246z" />
    <glyph glyph-name="imacron" unicode="&#x12b;" horiz-adv-x="606" 
d="M123 1049h360v-1049h-360v1049zM-115 1544h836v-246h-836v246z" />
    <glyph glyph-name="Iogonek" unicode="&#x12e;" horiz-adv-x="630" 
d="M68 -324q0 126 163 324h-108v1690h385v-1690h-109q-5 -6 -13 -16.5t-28.5 -43t-36.5 -65t-29 -77.5t-13 -85q0 -36 23 -58t52 -22q28 0 54 15.5t38 31.5l13 15l147 -111q-4 -6 -11 -16t-33 -35t-56 -44.5t-78.5 -35.5t-101.5 -16q-43 0 -85.5 13t-82.5 39.5t-65 75
t-25 111.5z" />
    <glyph glyph-name="iogonek" unicode="&#x12f;" horiz-adv-x="606" 
d="M59 -324q0 125 164 324h-100v1049h360v-1049h-92q-5 -6 -13 -16.5t-29 -43t-37 -65t-29 -77.5t-13 -85q0 -36 23.5 -58t52.5 -22q28 0 54 15.5t38 31.5l13 15l147 -111q-4 -6 -11.5 -16t-33.5 -35t-56 -44.5t-78.5 -35.5t-101.5 -16q-43 0 -85.5 13t-82.5 39.5t-65 75
t-25 111.5zM303 1700q89 0 152 -63t63 -152t-63 -152t-152 -63t-152 63t-63 152t63 152t152 63z" />
    <glyph glyph-name="dotlessi" unicode="&#x131;" horiz-adv-x="606" 
d="M123 1049h360v-1049h-360v1049z" />
    <glyph glyph-name="Kcommaaccent" unicode="&#x136;" horiz-adv-x="1611" 
d="M123 1690h385v-691l579 691h467l-680 -801l787 -889h-531l-622 717v-717h-385v1690zM803 -82q77 0 130.5 -54t53.5 -130q0 -234 -266 -453l-82 64q4 4 10.5 11t24.5 30t33 47.5t30.5 62t22.5 74.5q-60 14 -98.5 59t-38.5 105q0 76 53 130t127 54z" />
    <glyph glyph-name="kcommaaccent" unicode="&#x137;" horiz-adv-x="1323" 
d="M123 1761h362v-1079l367 367h471l-500 -502l549 -547h-467l-420 418v-418h-362v1761zM659 -82q77 0 131 -54t54 -130q0 -234 -266 -453l-82 64q4 4 10.5 11t24 30t32.5 47.5t30.5 62t22.5 74.5q-60 14 -98.5 59t-38.5 105q0 76 53 130t127 54z" />
    <glyph glyph-name="Lacute" unicode="&#x139;" horiz-adv-x="1157" 
d="M123 1690h385v-1352h582v-338h-967v1690zM201 1999l415 360l187 -235l-488 -283z" />
    <glyph glyph-name="lacute" unicode="&#x13a;" horiz-adv-x="610" 
d="M123 1761h364v-1761h-364v1761zM190 2071l416 360l187 -236l-488 -282z" />
    <glyph glyph-name="Lcommaaccent" unicode="&#x13b;" horiz-adv-x="1157" 
d="M123 1690h385v-1352h582v-338h-967v1690zM575 -82q77 0 131 -54t54 -130q0 -234 -266 -453l-82 64q4 4 10.5 11t24 30t32.5 47.5t30.5 62t22.5 74.5q-60 14 -98.5 59t-38.5 105q0 76 53 130t127 54z" />
    <glyph glyph-name="lcommaaccent" unicode="&#x13c;" horiz-adv-x="610" 
d="M123 1761h364v-1761h-364v1761zM303 -82q77 0 130.5 -54t53.5 -130q0 -234 -266 -453l-82 64q4 4 10.5 11t24.5 30t33 47.5t30.5 62t22.5 74.5q-60 14 -98.5 59t-38.5 105q0 76 53 130t127 54z" />
    <glyph glyph-name="Lcaron" unicode="&#x13d;" horiz-adv-x="1157" 
d="M123 1690h385v-1352h582v-338h-967v1690zM854 1690q76 0 130 -54t54 -131q0 -233 -266 -452l-82 63q4 4 10.5 11t24.5 30t33 47.5t30.5 62t22.5 74.5q-60 14 -98.5 59t-38.5 105q0 76 53 130.5t127 54.5z" />
    <glyph glyph-name="lcaron" unicode="&#x13e;" horiz-adv-x="610" 
d="M123 1761h364v-1761h-364v1761zM758 1688q76 0 130 -54t54 -131q0 -233 -266 -452l-82 63q4 4 10.5 11t24.5 30t33 47.5t30.5 62t22.5 74.5q-60 14 -98.5 59t-38.5 105q0 76 53 130.5t127 54.5z" />
    <glyph glyph-name="Lslash" unicode="&#x141;" horiz-adv-x="1157" 
d="M123 1690h385v-441l215 170v-313l-215 -170v-598h582v-338h-967v633l-156 -121v313l156 121v744z" />
    <glyph glyph-name="lslash" unicode="&#x142;" horiz-adv-x="610" 
d="M123 1761h364v-528l156 123v-314l-156 -122v-920h-364v633l-156 -121v313l156 121v815z" />
    <glyph glyph-name="Nacute" unicode="&#x143;" horiz-adv-x="1691" 
d="M123 1690h385l676 -1049v1049h385v-1690h-385l-676 1049v-1049h-385v1690zM545 1999l416 360l186 -235l-488 -283z" />
    <glyph glyph-name="nacute" unicode="&#x144;" horiz-adv-x="1353" 
d="M123 1049h362v-109q148 141 306 141q61 0 122 -12t123 -41t109 -72t76.5 -111.5t29.5 -152.5v-692h-362v594q0 82 -52.5 143.5t-136.5 61.5q-82 0 -148.5 -63.5t-66.5 -141.5v-594h-362v1049zM489 1360l416 360l187 -235l-488 -283z" />
    <glyph glyph-name="Ncommaaccent" unicode="&#x145;" horiz-adv-x="1691" 
d="M844 -82q76 0 130 -54t54 -130q0 -234 -266 -453l-82 64q4 4 10.5 11t24.5 30t33 47.5t30.5 62t22.5 74.5q-60 14 -98.5 59t-38.5 105q0 76 53 130t127 54zM123 1690h385l676 -1049v1049h385v-1690h-385l-676 1049v-1049h-385v1690z" />
    <glyph glyph-name="ncommaaccent" unicode="&#x146;" horiz-adv-x="1353" 
d="M684 -82q76 0 130 -54t54 -130q0 -234 -266 -453l-82 64q4 4 10.5 11t24.5 30t33 47.5t30.5 62t22.5 74.5q-60 14 -98.5 59t-38.5 105q0 76 53 130t127 54zM123 1049h362v-109q148 141 306 141q61 0 122 -12t123 -41t109 -72t76.5 -111.5t29.5 -152.5v-692h-362v594
q0 82 -52.5 143.5t-136.5 61.5q-82 0 -148.5 -63.5t-66.5 -141.5v-594h-362v1049z" />
    <glyph glyph-name="Ncaron" unicode="&#x147;" horiz-adv-x="1691" 
d="M123 1690h385l676 -1049v1049h385v-1690h-385l-676 1049v-1049h-385v1690zM393 2173l139 186l314 -229l313 229l139 -186l-452 -332z" />
    <glyph glyph-name="ncaron" unicode="&#x148;" horiz-adv-x="1353" 
d="M123 1049h362v-109q148 141 306 141q61 0 122 -12t123 -41t109 -72t76.5 -111.5t29.5 -152.5v-692h-362v594q0 82 -52.5 143.5t-136.5 61.5q-82 0 -148.5 -63.5t-66.5 -141.5v-594h-362v1049zM233 1534l140 186l313 -229l313 229l140 -186l-453 -332z" />
    <glyph glyph-name="Omacron" unicode="&#x14c;" horiz-adv-x="1820" 
d="M61 844q0 182 68 345t183 279t272 184t329 68q173 0 330.5 -68t272 -184t182 -279t67.5 -345t-65.5 -344.5t-178 -279.5t-271 -185t-337.5 -68q-184 0 -343.5 68t-270.5 185t-174.5 279t-63.5 345zM477 844q0 -78 15 -149.5t48.5 -136.5t83 -113t123.5 -76.5t166 -28.5
q111 0 197 43t137 115.5t77 160t26 185.5q0 97 -27 186t-79 161.5t-137.5 115.5t-193.5 43q-86 0 -159 -28.5t-123 -77t-85.5 -113.5t-52 -137.5t-16.5 -149.5zM496 2183h835v-246h-835v246z" />
    <glyph glyph-name="omacron" unicode="&#x14d;" horiz-adv-x="1353" 
d="M53 524q0 121 48.5 225t132 176.5t199.5 114t247 41.5q173 0 316 -70t227 -198.5t84 -288.5t-81 -287.5t-224 -198.5t-322 -71q-282 0 -454.5 156t-172.5 401zM434 524q0 -108 68.5 -178t177.5 -70q106 0 176 70.5t70 177.5t-71.5 177.5t-174.5 70.5q-104 0 -175 -70
t-71 -178zM262 1544h836v-246h-836v246z" />
    <glyph glyph-name="Ohungarumlaut" unicode="&#x150;" horiz-adv-x="1820" 
d="M61 844q0 182 68 345t183 279t272 184t329 68q173 0 330.5 -68t272 -184t182 -279t67.5 -345t-65.5 -344.5t-178 -279.5t-271 -185t-337.5 -68q-184 0 -343.5 68t-270.5 185t-174.5 279t-63.5 345zM477 844q0 -78 15 -149.5t48.5 -136.5t83 -113t123.5 -76.5t166 -28.5
q111 0 197 43t137 115.5t77 160t26 185.5q0 97 -27 186t-79 161.5t-137.5 115.5t-193.5 43q-86 0 -159 -28.5t-123 -77t-85.5 -113.5t-52 -137.5t-16.5 -149.5zM393 2040l416 360l186 -235l-487 -283zM954 2040l416 360l186 -235l-487 -283z" />
    <glyph glyph-name="ohungarumlaut" unicode="&#x151;" horiz-adv-x="1353" 
d="M53 524q0 121 48.5 225t132 176.5t199.5 114t247 41.5q173 0 316 -70t227 -198.5t84 -288.5t-81 -287.5t-224 -198.5t-322 -71q-282 0 -454.5 156t-172.5 401zM434 524q0 -108 68.5 -178t177.5 -70q106 0 176 70.5t70 177.5t-71.5 177.5t-174.5 70.5q-104 0 -175 -70
t-71 -178zM139 1360l416 360l186 -235l-487 -283zM700 1360l416 360l187 -235l-488 -283z" />
    <glyph glyph-name="OE" unicode="&#x152;" horiz-adv-x="2039" 
d="M18 844q0 181 68 340t183.5 269t271.5 173.5t329 63.5h1072v-338h-582v-336h557v-338h-557v-340h582v-338h-1072q-173 0 -329 63t-271.5 173t-183.5 268.5t-68 339.5zM434 844q0 -141 60 -254.5t170 -179.5t251 -66h60v1002h-60q-212 0 -346.5 -144t-134.5 -358z" />
    <glyph glyph-name="oe" unicode="&#x153;" horiz-adv-x="2099" 
d="M55 524q0 121 47.5 225t130 176.5t197.5 114t246 41.5q71 0 137.5 -17.5t111.5 -42t80 -49t51 -42.5l17 -17q6 7 18 18t52.5 40t85 51.5t115.5 40.5t145 18q121 0 223 -35.5t178 -104t119 -175.5t43 -242q0 -37 -2 -49h-762q0 -58 22 -102t57.5 -68.5t73.5 -36.5t75 -12
q88 0 139 23.5t117 93.5l262 -131q-164 -275 -545 -275q-69 0 -137 17.5t-115.5 42t-85.5 49t-57 42.5l-19 17q-3 -4 -8.5 -10t-25 -23.5t-41.5 -33t-57.5 -35t-73.5 -33.5t-89 -23.5t-104 -9.5q-281 0 -451 155.5t-170 401.5zM1298 676h400q-12 82 -65 126t-134 44
q-91 0 -143.5 -47.5t-57.5 -122.5zM434 524q0 -108 68.5 -178t177.5 -70q106 0 175 70.5t69 177.5t-70.5 177.5t-173.5 70.5q-104 0 -175 -70t-71 -178z" />
    <glyph glyph-name="Racute" unicode="&#x154;" horiz-adv-x="1466" 
d="M123 1690h616q125 0 229.5 -32.5t183 -96t122 -164t43.5 -228.5q0 -193 -95 -324.5t-259 -185.5l550 -659h-489l-485 627h-31v-627h-385v1690zM508 1382v-448h108q61 0 111 11t93 35.5t67 69.5t24 107q0 51 -16.5 90.5t-43.5 64.5t-65.5 41t-80 22.5t-89.5 6.5h-108z
M432 1999l416 360l186 -235l-487 -283z" />
    <glyph glyph-name="racute" unicode="&#x155;" horiz-adv-x="1021" 
d="M125 1049h362v-150q5 7 14 19.5t41 44t67 55.5t90.5 43.5t113.5 19.5q60 0 117.5 -16.5t84.5 -32.5l27 -16l-151 -307q-8 6 -22.5 15.5t-63.5 25.5t-103 16q-53 0 -94 -20t-63 -47t-36 -59.5t-18 -53.5t-4 -33v-553h-362v1049zM283 1360l415 360l187 -235l-488 -283z" />
    <glyph glyph-name="Rcommaaccent" unicode="&#x156;" horiz-adv-x="1466" 
d="M123 1690h616q125 0 229.5 -32.5t183 -96t122 -164t43.5 -228.5q0 -193 -95 -324.5t-259 -185.5l550 -659h-489l-485 627h-31v-627h-385v1690zM508 1382v-448h108q61 0 111 11t93 35.5t67 69.5t24 107q0 51 -16.5 90.5t-43.5 64.5t-65.5 41t-80 22.5t-89.5 6.5h-108z
M731 -82q77 0 130.5 -54t53.5 -130q0 -234 -266 -453l-82 64q4 4 10.5 11t24.5 30t33 47.5t30.5 62t22.5 74.5q-60 14 -98.5 59t-38.5 105q0 76 53 130t127 54z" />
    <glyph glyph-name="rcommaaccent" unicode="&#x157;" horiz-adv-x="1019" 
d="M125 1049h360v-150q5 7 14 19.5t41 44t67 55.5t90.5 43.5t113.5 19.5q60 0 117.5 -16.5t84.5 -32.5l27 -16l-151 -307q-8 6 -22.5 15.5t-63.5 25.5t-103 16q-53 0 -94 -20t-63 -47t-36 -59.5t-18 -53.5t-4 -33v-553h-360v1049zM303 -82q77 0 130.5 -54t53.5 -130
q0 -234 -266 -453l-82 64q4 4 10.5 11t24.5 30t33 47.5t30.5 62t22.5 74.5q-60 14 -98.5 59t-38.5 105q0 76 53 130t127 54z" />
    <glyph glyph-name="Rcaron" unicode="&#x158;" horiz-adv-x="1466" 
d="M123 1690h616q125 0 229.5 -32.5t183 -96t122 -164t43.5 -228.5q0 -193 -95 -324.5t-259 -185.5l550 -659h-489l-485 627h-31v-627h-385v1690zM508 1382v-448h108q61 0 111 11t93 35.5t67 69.5t24 107q0 51 -16.5 90.5t-43.5 64.5t-65.5 41t-80 22.5t-89.5 6.5h-108z
M211 2173l139 186l314 -229l313 229l139 -186l-452 -332z" />
    <glyph glyph-name="rcaron" unicode="&#x159;" horiz-adv-x="1021" 
d="M125 1049h362v-150q5 7 14 19.5t41 44t67 55.5t90.5 43.5t113.5 19.5q60 0 117.5 -16.5t84.5 -32.5l27 -16l-151 -307q-8 6 -22.5 15.5t-63.5 25.5t-103 16q-53 0 -94 -20t-63 -47t-36 -59.5t-18 -53.5t-4 -33v-553h-362v1049zM131 1534l139 186l314 -229l313 229
l139 -186l-452 -332z" />
    <glyph glyph-name="Sacute" unicode="&#x15a;" horiz-adv-x="1376" 
d="M195 1202q0 151 81.5 272t206 183.5t262.5 62.5q86 0 171.5 -16.5t146.5 -40t109.5 -47.5t73.5 -40l24 -17l-156 -308q-7 5 -19.5 13t-50.5 28.5t-76.5 36t-92.5 28.5t-103 13q-96 0 -148.5 -41.5t-52.5 -111.5q0 -17 6.5 -33.5t22.5 -33t31 -30t45 -30.5t51 -28.5
t61.5 -29.5t64 -28.5t71.5 -30.5q75 -32 142 -75.5t125.5 -101t93 -131.5t34.5 -153q0 -117 -35 -211t-94 -155.5t-141.5 -102.5t-173 -58.5t-193.5 -17.5q-111 0 -217 23t-178.5 55.5t-129 65.5t-83.5 56l-27 23l193 324q9 -8 25.5 -20.5t65.5 -45.5t96 -58t110 -45.5
t116 -20.5q33 0 58.5 2t63 11t62 25.5t42.5 49t18 77.5q0 30 -15.5 57t-37 47t-64 44.5t-75 40.5t-93 44t-96.5 46q-153 75 -237 188.5t-84 245.5zM485 1999l416 360l186 -235l-487 -283z" />
    <glyph glyph-name="sacute" unicode="&#x15b;" horiz-adv-x="1007" 
d="M580 1081q90 0 178 -20.5t131 -40.5l43 -21l-119 -237q-14 7 -37 18t-85 29t-111 18q-62 0 -87.5 -13.5t-25.5 -49.5q0 -18 9.5 -31.5t33.5 -25t46 -19.5t65 -21q2 -1 3.5 -1t3 -1t3.5 -1q49 -15 87.5 -31t84 -44.5t76 -63t51 -86t20.5 -113.5q0 -359 -497 -359
q-71 0 -139 14.5t-114.5 35.5t-82.5 42t-53 35l-17 15l148 247q6 -5 16 -13t41 -28.5t61 -36.5t69.5 -29t72.5 -13q32 0 53 3.5t40 21t19 50.5q0 34 -28 54.5t-98 46.5t-107 45q-46 24 -79 46.5t-66 56.5t-50.5 80t-17.5 103q0 159 124.5 248.5t334.5 89.5zM299 1360
l416 360l186 -235l-487 -283z" />
    <glyph glyph-name="Scedilla" unicode="&#x15e;" horiz-adv-x="1378" 
d="M195 1202q0 151 81.5 272t206 183.5t262.5 62.5q86 0 171.5 -16.5t146.5 -40t109.5 -47.5t73.5 -40l24 -17l-156 -308q-7 5 -19.5 13t-50.5 28.5t-76.5 36t-92.5 28.5t-103 13q-96 0 -148.5 -41.5t-52.5 -111.5q0 -17 6.5 -33.5t22.5 -33t31 -30t45 -30.5t51 -28.5
t61.5 -29.5t64 -28.5t71.5 -30.5q75 -32 142 -75.5t125.5 -101t93 -131.5t34.5 -153q0 -108 -29 -195.5t-79 -148t-120.5 -103t-150 -65t-170.5 -29.5l-33 -100q44 0 89 -13t85 -38t65 -66.5t25 -91.5q0 -51 -17 -96t-52.5 -84t-97.5 -61.5t-144 -22.5q-52 0 -103 17.5
t-87.5 42.5t-66 50t-43.5 42l-15 18l147 110q3 -4 8.5 -10.5t23.5 -23t36.5 -29t46 -23t53.5 -10.5q53 0 78 23.5t25 56.5q0 44 -39.5 68t-87.5 24q-33 0 -59 -4.5t-36 -9.5l-10 -4l-20 16l69 217q-99 7 -193 32.5t-158 56.5t-114 61t-74 51l-24 20l193 324q9 -8 25.5 -20.5
t65.5 -45.5t96 -58t110 -45.5t116 -20.5q33 0 58.5 2t63 11t62 25.5t42.5 49t18 77.5q0 30 -15.5 57t-37 47t-64 44.5t-75 40.5t-93 44t-96.5 46q-153 75 -237 188.5t-84 245.5z" />
    <glyph glyph-name="scedilla" unicode="&#x15f;" horiz-adv-x="1005" 
d="M580 1081q90 0 178 -20.5t131 -40.5l43 -21l-119 -237q-14 7 -37 18t-85 29t-111 18q-62 0 -87.5 -13.5t-25.5 -49.5q0 -18 9.5 -31.5t33.5 -25t46 -19.5t65 -21q2 -1 3.5 -1t3 -1t3.5 -1q49 -15 87.5 -31t84 -44.5t76 -63t51 -86t20.5 -113.5q0 -305 -364 -351l-33 -104
q44 0 89 -13t85 -38t65 -66.5t25 -91.5q0 -51 -17 -96t-52.5 -84t-97.5 -61.5t-144 -22.5q-52 0 -103.5 17.5t-88 42.5t-66 50t-44.5 42l-14 18l148 110q3 -4 8.5 -10.5t23.5 -23t36.5 -29t46 -23t53.5 -10.5q53 0 77.5 23.5t24.5 56.5q0 44 -39.5 68t-87.5 24
q-33 0 -59 -4.5t-36 -9.5l-9 -4l-21 16l70 215q-67 3 -130.5 18.5t-106.5 36t-76.5 40.5t-49.5 34l-16 13l148 247q6 -5 16 -13t41 -28.5t61 -36.5t69.5 -29t72.5 -13q32 0 53 3.5t40 21t19 50.5q0 34 -28 54.5t-98 46.5t-107 45q-46 24 -79 46.5t-66 56.5t-50.5 80
t-17.5 103q0 159 124.5 248.5t334.5 89.5z" />
    <glyph glyph-name="Scaron" unicode="&#x160;" horiz-adv-x="1376" 
d="M195 1202q0 151 81.5 272t206 183.5t262.5 62.5q86 0 171.5 -16.5t146.5 -40t109.5 -47.5t73.5 -40l24 -17l-156 -308q-7 5 -19.5 13t-50.5 28.5t-76.5 36t-92.5 28.5t-103 13q-96 0 -148.5 -41.5t-52.5 -111.5q0 -17 6.5 -33.5t22.5 -33t31 -30t45 -30.5t51 -28.5
t61.5 -29.5t64 -28.5t71.5 -30.5q75 -32 142 -75.5t125.5 -101t93 -131.5t34.5 -153q0 -117 -35 -211t-94 -155.5t-141.5 -102.5t-173 -58.5t-193.5 -17.5q-111 0 -217 23t-178.5 55.5t-129 65.5t-83.5 56l-27 23l193 324q9 -8 25.5 -20.5t65.5 -45.5t96 -58t110 -45.5
t116 -20.5q33 0 58.5 2t63 11t62 25.5t42.5 49t18 77.5q0 30 -15.5 57t-37 47t-64 44.5t-75 40.5t-93 44t-96.5 46q-153 75 -237 188.5t-84 245.5zM293 2173l139 186l313 -229l314 229l139 -186l-453 -332z" />
    <glyph glyph-name="scaron" unicode="&#x161;" horiz-adv-x="1007" 
d="M580 1081q90 0 178 -20.5t131 -40.5l43 -21l-119 -237q-14 7 -37 18t-85 29t-111 18q-62 0 -87.5 -13.5t-25.5 -49.5q0 -18 9.5 -31.5t33.5 -25t46 -19.5t65 -21q2 -1 3.5 -1t3 -1t3.5 -1q49 -15 87.5 -31t84 -44.5t76 -63t51 -86t20.5 -113.5q0 -359 -497 -359
q-71 0 -139 14.5t-114.5 35.5t-82.5 42t-53 35l-17 15l148 247q6 -5 16 -13t41 -28.5t61 -36.5t69.5 -29t72.5 -13q32 0 53 3.5t40 21t19 50.5q0 34 -28 54.5t-98 46.5t-107 45q-46 24 -79 46.5t-66 56.5t-50.5 80t-17.5 103q0 159 124.5 248.5t334.5 89.5zM127 1534
l139 186l314 -229l313 229l139 -186l-452 -332z" />
    <glyph glyph-name="Tcommaaccent" unicode="&#x162;" horiz-adv-x="1220" 
d="M16 1690h1188v-338h-401v-1352h-385v1352h-402v338zM608 -141q76 0 130.5 -54.5t54.5 -130.5q0 -233 -267 -452l-82 63q11 10 27.5 29.5t49.5 78.5t44 118q-60 14 -98.5 58.5t-38.5 104.5q0 76 53 130.5t127 54.5z" />
    <glyph glyph-name="tcommaaccent" unicode="&#x163;" horiz-adv-x="808" 
d="M33 1049h151v393h363v-393h221v-277h-221v-334q0 -145 82 -145q21 0 43.5 8.5t34.5 16.5l12 8l90 -293q-13 -7 -36.5 -18t-93 -29.5t-136.5 -18.5q-83 0 -148 24.5t-104 63t-63.5 93t-34 108t-9.5 113.5v403h-151v277zM475 -82q77 0 130.5 -54t53.5 -130
q0 -234 -266 -453l-82 64q4 4 10.5 11t24.5 30t33 47.5t30.5 62t22.5 74.5q-60 14 -98.5 59t-38.5 105q0 76 53 130t127 54z" />
    <glyph glyph-name="Tcaron" unicode="&#x164;" horiz-adv-x="1220" 
d="M16 1690h1188v-338h-401v-1352h-385v1352h-402v338zM158 2173l139 186l313 -229l314 229l139 -186l-453 -332z" />
    <glyph glyph-name="tcaron" unicode="&#x165;" horiz-adv-x="808" 
d="M33 1049h151v393h363v-393h221v-277h-221v-334q0 -145 82 -145q21 0 43.5 8.5t34.5 16.5l12 8l90 -293q-13 -7 -36.5 -18t-93 -29.5t-136.5 -18.5q-83 0 -148 24.5t-104 63t-63.5 93t-34 108t-9.5 113.5v403h-151v277zM975 1688q76 0 130 -54t54 -131q0 -233 -266 -452
l-82 63q4 4 10.5 11t24.5 30t33 47.5t30.5 62t22.5 74.5q-60 14 -98.5 59t-38.5 105q0 76 53 130.5t127 54.5z" />
    <glyph glyph-name="Umacron" unicode="&#x16a;" horiz-adv-x="1523" 
d="M102 1690h385v-979q0 -140 30.5 -220.5t88.5 -112.5t156 -32t156 32t88 112.5t30 220.5v979h385v-1092q0 -312 -167.5 -471.5t-491.5 -159.5t-492 159.5t-168 471.5v1092zM344 2183h836v-246h-836v246z" />
    <glyph glyph-name="umacron" unicode="&#x16b;" horiz-adv-x="1343" 
d="M102 1049h363v-502q0 -156 46.5 -220.5t160.5 -64.5t160.5 64.5t46.5 220.5v502h362v-590q0 -262 -136 -377t-433 -115q-298 0 -434 115t-136 377v590zM254 1544h836v-246h-836v246z" />
    <glyph glyph-name="Uring" unicode="&#x16e;" horiz-adv-x="1523" 
d="M102 1690h385v-979q0 -140 30.5 -220.5t88.5 -112.5t156 -32t156 32t88 112.5t30 220.5v979h385v-1092q0 -312 -167.5 -471.5t-491.5 -159.5t-492 159.5t-168 471.5v1092zM432 2140q0 126 95 208.5t235 82.5q141 0 235.5 -82.5t94.5 -208.5q0 -129 -92.5 -211t-237.5 -82
q-147 0 -238.5 81.5t-91.5 211.5zM637 2140q0 -55 35 -93t90 -38q53 0 89 38t36 93q0 53 -36.5 90t-88.5 37q-51 0 -88 -37.5t-37 -89.5z" />
    <glyph glyph-name="uring" unicode="&#x16f;" horiz-adv-x="1343" 
d="M102 1049h363v-502q0 -156 46.5 -220.5t160.5 -64.5t160.5 64.5t46.5 220.5v502h362v-590q0 -262 -136 -377t-433 -115q-298 0 -434 115t-136 377v590zM342 1501q0 126 95 208.5t235 82.5q141 0 235 -82t94 -209q0 -129 -92 -211t-237 -82q-147 0 -238.5 81.5
t-91.5 211.5zM547 1501q0 -55 35 -93t90 -38q53 0 89 38t36 93q0 53 -36.5 90t-88.5 37q-51 0 -88 -37.5t-37 -89.5z" />
    <glyph glyph-name="Uhungarumlaut" unicode="&#x170;" horiz-adv-x="1523" 
d="M102 1690h385v-979q0 -140 30.5 -220.5t88.5 -112.5t156 -32t156 32t88 112.5t30 220.5v979h385v-1092q0 -312 -167.5 -471.5t-491.5 -159.5t-492 159.5t-168 471.5v1092zM242 2040l415 360l187 -235l-488 -283zM803 2040l416 360l186 -235l-487 -283z" />
    <glyph glyph-name="uhungarumlaut" unicode="&#x171;" horiz-adv-x="1343" 
d="M102 1049h363v-502q0 -156 46.5 -220.5t160.5 -64.5t160.5 64.5t46.5 220.5v502h362v-590q0 -262 -136 -377t-433 -115q-298 0 -434 115t-136 377v590zM131 1360l416 360l186 -235l-487 -283zM692 1360l416 360l186 -235l-487 -283z" />
    <glyph glyph-name="Uogonek" unicode="&#x172;" horiz-adv-x="1523" 
d="M543 -324q0 117 139 295q-285 19 -432.5 177t-147.5 450v1092h385v-979q0 -140 30.5 -220.5t88.5 -112.5t156 -32t156 32t88 112.5t30 220.5v979h385v-1092q0 -289 -144.5 -447t-424.5 -180q-98 -140 -98 -258q0 -36 23 -58t52 -22q28 0 54.5 15.5t38.5 31.5l12 15
l147 -111q-4 -6 -11 -16t-33 -35t-56 -44.5t-78.5 -35.5t-101.5 -16q-43 0 -85.5 13t-82.5 39.5t-65 75t-25 111.5z" />
    <glyph glyph-name="uogonek" unicode="&#x173;" horiz-adv-x="1343" 
d="M453 -324q0 115 139 293q-255 14 -372.5 130t-117.5 360v590h363v-502q0 -156 46.5 -220.5t160.5 -64.5t160.5 64.5t46.5 220.5v502h362v-590q0 -243 -115 -359t-364 -131q-98 -132 -98 -256q0 -36 23 -58t52 -22q28 0 54.5 15.5t38.5 31.5l12 15l147 -111q-4 -6 -11 -16
t-33 -35t-56 -44.5t-78.5 -35.5t-101.5 -16q-43 0 -85.5 13t-82.5 39.5t-65 75t-25 111.5z" />
    <glyph glyph-name="Ydieresis" unicode="&#x178;" horiz-adv-x="1515" 
d="M-57 1690h463l352 -541l352 541h463l-623 -932v-758h-385v758zM514 2259q78 0 133 -55t55 -133t-55 -133.5t-133 -55.5t-133 55.5t-55 133.5t55 133t133 55zM1001 2259q78 0 133.5 -55t55.5 -133t-55.5 -133.5t-133.5 -55.5t-133 55.5t-55 133.5t55 133t133 55z" />
    <glyph glyph-name="Zacute" unicode="&#x179;" horiz-adv-x="1574" 
d="M152 1690h1390l-837 -1352h782v-338h-1454l835 1352h-716v338zM608 1999l416 360l186 -235l-487 -283z" />
    <glyph glyph-name="zacute" unicode="&#x17a;" horiz-adv-x="1720" 
d="M338 1049h1042l-520 -773h479v-276h-1087l520 772h-434v277zM600 1360l416 360l186 -235l-487 -283z" />
    <glyph glyph-name="Zdotaccent" unicode="&#x17b;" horiz-adv-x="1574" 
d="M152 1690h1390l-837 -1352h782v-338h-1454l835 1352h-716v338zM846 2259q78 0 133 -55t55 -133t-55 -133.5t-133 -55.5t-133.5 55.5t-55.5 133.5t55.5 133t133.5 55z" />
    <glyph glyph-name="zdotaccent" unicode="&#x17c;" horiz-adv-x="1720" 
d="M338 1049h1042l-520 -773h479v-276h-1087l520 772h-434v277zM858 1620q78 0 133.5 -55t55.5 -133t-55.5 -133.5t-133.5 -55.5t-133 55.5t-55 133.5t55 133t133 55z" />
    <glyph glyph-name="Zcaron" unicode="&#x17d;" horiz-adv-x="1574" 
d="M152 1690h1390l-837 -1352h782v-338h-1454l835 1352h-716v338zM393 2173l139 186l314 -229l313 229l139 -186l-452 -332z" />
    <glyph glyph-name="zcaron" unicode="&#x17e;" horiz-adv-x="1720" 
d="M338 1049h1042l-520 -773h479v-276h-1087l520 772h-434v277zM406 1534l139 186l313 -229l313 229l140 -186l-453 -332z" />
    <glyph glyph-name="Scommaaccent" unicode="&#x218;" horiz-adv-x="1376" 
d="M195 1202q0 151 81.5 272t206 183.5t262.5 62.5q86 0 171.5 -16.5t146.5 -40t109.5 -47.5t73.5 -40l24 -17l-156 -308q-7 5 -19.5 13t-50.5 28.5t-76.5 36t-92.5 28.5t-103 13q-96 0 -148.5 -41.5t-52.5 -111.5q0 -17 6.5 -33.5t22.5 -33t31 -30t45 -30.5t51 -28.5
t61.5 -29.5t64 -28.5t71.5 -30.5q75 -32 142 -75.5t125.5 -101t93 -131.5t34.5 -153q0 -117 -35 -211t-94 -155.5t-141.5 -102.5t-173 -58.5t-193.5 -17.5q-111 0 -217 23t-178.5 55.5t-129 65.5t-83.5 56l-27 23l193 324q9 -8 25.5 -20.5t65.5 -45.5t96 -58t110 -45.5
t116 -20.5q33 0 58.5 2t63 11t62 25.5t42.5 49t18 77.5q0 30 -15.5 57t-37 47t-64 44.5t-75 40.5t-93 44t-96.5 46q-153 75 -237 188.5t-84 245.5zM682 -82q76 0 130 -54t54 -130q0 -234 -266 -453l-82 64q4 4 10.5 11t24.5 30t33 47.5t30.5 62t22.5 74.5q-60 14 -98.5 59
t-38.5 105q0 76 53 130t127 54z" />
    <glyph glyph-name="scommaaccent" unicode="&#x219;" horiz-adv-x="1007" 
d="M580 1081q90 0 178 -20.5t131 -40.5l43 -21l-119 -237q-14 7 -37 18t-85 29t-111 18q-62 0 -87.5 -13.5t-25.5 -49.5q0 -18 9.5 -31.5t33.5 -25t46 -19.5t65 -21q2 -1 3.5 -1t3 -1t3.5 -1q49 -15 87.5 -31t84 -44.5t76 -63t51 -86t20.5 -113.5q0 -359 -497 -359
q-71 0 -139 14.5t-114.5 35.5t-82.5 42t-53 35l-17 15l148 247q6 -5 16 -13t41 -28.5t61 -36.5t69.5 -29t72.5 -13q32 0 53 3.5t40 21t19 50.5q0 34 -28 54.5t-98 46.5t-107 45q-46 24 -79 46.5t-66 56.5t-50.5 80t-17.5 103q0 159 124.5 248.5t334.5 89.5zM453 -82
q77 0 130.5 -54t53.5 -130q0 -234 -266 -453l-82 64q4 4 10.5 11t24.5 30t33 47.5t30.5 62t22.5 74.5q-60 14 -99 59t-39 105q0 76 53.5 130t127.5 54z" />
    <glyph glyph-name="circumflex" unicode="&#x2c6;" horiz-adv-x="1191" 
d="M143 1389l453 331l453 -331l-140 -187l-313 230l-313 -230z" />
    <glyph glyph-name="caron" unicode="&#x2c7;" horiz-adv-x="1191" 
d="M143 1534l140 186l313 -229l313 229l140 -186l-453 -332z" />
    <glyph glyph-name="breve" unicode="&#x2d8;" horiz-adv-x="1232" 
d="M143 1657l258 63q1 -9 3.5 -23t17 -50.5t35.5 -64t63 -50.5t96 -23q39 0 72.5 11.5t55 30t38 41t25.5 45.5t15 41.5t8 29.5l1 12l259 -63q-19 -166 -148.5 -268.5t-325.5 -102.5t-325 102.5t-148 268.5z" />
    <glyph glyph-name="dotaccent" unicode="&#x2d9;" horiz-adv-x="663" 
d="M332 1620q78 0 133 -55t55 -133t-55 -133.5t-133 -55.5t-133.5 55.5t-55.5 133.5t55.5 133t133.5 55z" />
    <glyph glyph-name="ring" unicode="&#x2da;" horiz-adv-x="946" 
d="M143 1501q0 126 95 208.5t235 82.5q141 0 235.5 -82.5t94.5 -208.5q0 -129 -92.5 -211t-237.5 -82q-147 0 -238.5 81.5t-91.5 211.5zM348 1501q0 -55 35 -93t90 -38q53 0 89 38t36 93q0 53 -36.5 90t-88.5 37q-51 0 -88 -37.5t-37 -89.5z" />
    <glyph glyph-name="ogonek" unicode="&#x2db;" horiz-adv-x="825" 
d="M143 -324q0 72 53.5 166t106.5 152l53 59l119 -53q-5 -6 -13 -16.5t-29 -43t-37 -65t-29 -77.5t-13 -85q0 -36 23.5 -58t52.5 -22q28 0 54.5 15.5t38.5 31.5l12 15l147 -111q-4 -6 -11.5 -16t-33.5 -35t-56 -44.5t-78.5 -35.5t-101.5 -16q-43 0 -85.5 13t-82.5 39.5
t-65 75t-25 111.5z" />
    <glyph glyph-name="tilde" unicode="&#x2dc;" horiz-adv-x="1232" 
d="M29 1409q5 11 15.5 30t46 67.5t74.5 85.5t100.5 67.5t125.5 30.5q47 0 88 -8t82 -27.5t65 -33t70 -42.5q94 -63 146 -63q33 0 63 16.5t49 40t33.5 46.5t20.5 39l6 17l190 -168l-8 -16t-23.5 -39t-39 -55.5t-53 -59t-66.5 -55.5t-79.5 -39t-92.5 -16q-61 0 -119.5 17.5
t-93.5 36.5t-88 54q-98 66 -150 66q-33 0 -63 -16.5t-49 -40t-33.5 -47t-20.5 -39.5l-6 -17z" />
    <glyph glyph-name="hungarumlaut" unicode="&#x2dd;" horiz-adv-x="1570" 
d="M203 1360l415 360l187 -235l-488 -283zM764 1360l416 360l186 -235l-487 -283z" />
    <glyph glyph-name="endash" unicode="&#x2013;" horiz-adv-x="1105" 
d="M0 750h1106v-314h-1106v314z" />
    <glyph glyph-name="emdash" unicode="&#x2014;" horiz-adv-x="2211" 
d="M0 750h2212v-314h-2212v314z" />
    <glyph glyph-name="quoteleft" unicode="&#x2018;" horiz-adv-x="595" 
d="M47 1190q0 271 311 530l97 -75q-5 -4 -12.5 -12.5t-28.5 -35t-39 -55.5t-36 -72.5t-26 -87.5q70 -18 115 -70t45 -122q0 -89 -61.5 -152t-149.5 -63q-89 0 -152 63t-63 152z" />
    <glyph glyph-name="quoteright" unicode="&#x2019;" horiz-adv-x="595" 
d="M334 1720q89 0 152 -63t63 -152q0 -271 -311 -530l-97 76q5 4 12.5 12t28.5 35t39 55.5t36 72t26 87.5q-70 18 -115 70t-45 122q0 89 61.5 152t149.5 63z" />
    <glyph glyph-name="quotesinglbase" unicode="&#x201a;" horiz-adv-x="595" 
d="M334 418q89 0 152 -63t63 -152q0 -272 -311 -531l-97 76q5 4 12.5 12t28.5 35t39 55.5t36 72t26 87.5q-70 18 -115 70.5t-45 122.5q0 89 61.5 152t149.5 63z" />
    <glyph glyph-name="quotedblleft" unicode="&#x201c;" horiz-adv-x="1116" 
d="M47 1190q0 271 311 530l97 -75q-5 -4 -12.5 -12.5t-28.5 -35t-39 -55.5t-36 -72.5t-26 -87.5q70 -18 115 -70t45 -122q0 -89 -61.5 -152t-149.5 -63q-89 0 -152 63t-63 152zM569 1190q0 275 310 530l96 -75q-5 -4 -12.5 -12.5t-29 -35t-39 -55.5t-36 -72.5t-27.5 -87.5
q71 -18 116.5 -70t45.5 -122q0 -89 -62.5 -152t-150.5 -63q-89 0 -150 62.5t-61 152.5z" />
    <glyph glyph-name="quotedblright" unicode="&#x201d;" horiz-adv-x="1116" 
d="M336 1720q89 0 150 -62.5t61 -152.5q0 -276 -309 -530l-97 76q5 4 12.5 12t29 35t39 55.5t36 72t27.5 87.5q-71 18 -116.5 70t-45.5 122q0 89 62.5 152t150.5 63zM854 1720q89 0 152 -63t63 -152q0 -271 -311 -530l-96 76q5 4 12.5 12t28.5 35t38.5 55.5t35.5 72t26 87.5
q-70 18 -115 70t-45 122q0 89 61.5 152t149.5 63z" />
    <glyph glyph-name="quotedblbase" unicode="&#x201e;" horiz-adv-x="1116" 
d="M336 418q89 0 150 -62.5t61 -152.5q0 -277 -309 -531l-97 76q5 4 12.5 12t29 35t39 55.5t36 72t27.5 87.5q-71 18 -116.5 70.5t-45.5 122.5q0 89 62.5 152t150.5 63zM854 418q89 0 152 -63t63 -152q0 -272 -311 -531l-96 76q5 4 12.5 12t28.5 35t38.5 55.5t35.5 72
t26 87.5q-70 18 -115 70.5t-45 122.5q0 89 61.5 152t149.5 63z" />
    <glyph glyph-name="dagger" unicode="&#x2020;" horiz-adv-x="1110" 
d="M143 1331h254v430h314v-430h256v-278h-256v-1053h-314v1053h-254v278z" />
    <glyph glyph-name="daggerdbl" unicode="&#x2021;" horiz-adv-x="1110" 
d="M143 1290h254v471h314v-471h256v-278h-256v-262h256v-279h-256v-471h-314v471h-254v279h254v262h-254v278z" />
    <glyph glyph-name="bullet" unicode="&#x2022;" horiz-adv-x="1466" 
d="M731 1133q167 0 285.5 -118.5t118.5 -285.5q0 -166 -118.5 -282.5t-285.5 -116.5q-166 0 -282.5 116.5t-116.5 282.5q0 167 116.5 285.5t282.5 118.5z" />
    <glyph glyph-name="ellipsis" unicode="&#x2026;" horiz-adv-x="2144" 
d="M356 436q98 0 167 -68.5t69 -166.5q0 -97 -69 -165.5t-167 -68.5q-97 0 -165 68.5t-68 165.5q0 98 68 166.5t165 68.5zM1071 436q98 0 167 -68.5t69 -166.5q0 -97 -69 -165.5t-167 -68.5q-97 0 -165 68.5t-68 165.5q0 98 68 166.5t165 68.5zM1786 436q98 0 166.5 -68.5
t68.5 -166.5q0 -97 -68.5 -165.5t-166.5 -68.5q-97 0 -165.5 68.5t-68.5 165.5q0 98 68.5 166.5t165.5 68.5z" />
    <glyph glyph-name="perthousand" unicode="&#x2030;" horiz-adv-x="3008" 
d="M47 1317q0 177 130.5 290t326.5 113q190 0 319 -113.5t129 -289.5q0 -175 -126 -289.5t-322 -114.5q-205 0 -331 113.5t-126 290.5zM395 0l983 1690h242l-983 -1690h-242zM313 1317q0 -83 53.5 -135t137.5 -52q79 0 130.5 52t51.5 135q0 82 -52.5 136t-129.5 54
q-79 0 -135 -54t-56 -136zM1057 371q0 177 125.5 290t330.5 113q196 0 322.5 -114t126.5 -289q0 -176 -129.5 -290t-319.5 -114q-195 0 -325.5 113.5t-130.5 290.5zM2056 371q0 177 126 290t331 113q196 0 322 -114t126 -289q0 -176 -129 -290t-319 -114q-195 0 -326 113.5
t-131 290.5zM1323 371q0 -82 55.5 -136.5t134.5 -54.5q77 0 130 54.5t53 136.5t-52 134t-131 52q-84 0 -137 -51.5t-53 -134.5zM2322 371q0 -82 56 -136.5t135 -54.5q77 0 129.5 54t52.5 137q0 82 -51.5 134t-130.5 52q-84 0 -137.5 -51.5t-53.5 -134.5z" />
    <glyph glyph-name="guilsinglleft" unicode="&#x2039;" horiz-adv-x="768" 
d="M68 571l399 512l190 -149l-282 -363l282 -362l-190 -150z" />
    <glyph glyph-name="guilsinglright" unicode="&#x203a;" horiz-adv-x="768" 
d="M111 934l190 149l399 -512l-399 -512l-190 150l282 362z" />
    <glyph glyph-name="fraction" unicode="&#x2044;" horiz-adv-x="540" 
d="M-342 0l983 1690h242l-983 -1690h-242z" />
    <glyph glyph-name="Euro" unicode="&#x20ac;" horiz-adv-x="1701" 
d="M47 1126h197q64 172 194.5 307t305.5 211t364 76q103 0 198 -16t157 -39t109.5 -45.5t69.5 -38.5l21 -16l-164 -328q-6 4 -16 11t-44 25t-70 32t-91.5 25t-110.5 11q-160 0 -278 -59t-187 -156h621v-221h-709q-6 -30 -6 -61q0 -34 6 -64h709v-221h-621q69 -97 186.5 -155
t278.5 -58q55 0 109.5 11t93 26t69 30.5t45.5 26.5l15 11l164 -328q-8 -6 -22.5 -16.5t-67 -37.5t-111.5 -47.5t-155 -37.5t-199 -17q-283 0 -524 166.5t-340 425.5h-197v221h148q-7 35 -7 64q0 26 7 61h-148v221z" />
    <glyph glyph-name="trademark" unicode="&#x2122;" horiz-adv-x="1052" 
d="M35 1690h375v-107h-125v-422h-125v422h-125v107zM475 1690h129l117 -304l117 304h129l49 -529h-123l-25 314l-110 -310h-72l-111 310l-26 -314h-121z" />
    <glyph glyph-name="minus" unicode="&#x2212;" horiz-adv-x="1294" 
d="M123 1006h1048v-314h-1048v314z" />
    <glyph glyph-name="notequal" unicode="&#x2260;" horiz-adv-x="1296" 
d="M123 1251h592l172 295h241l-172 -295h215v-313h-397l-102 -178h499v-314h-682l-176 -303h-241l176 303h-125v314h307l102 178h-409v313z" />
    <glyph glyph-name="lessequal" unicode="&#x2264;" horiz-adv-x="1366" 
d="M123 313h1120v-313h-1120v313zM123 1235l1120 455v-291l-733 -285l733 -285v-290l-1120 454v242z" />
    <glyph glyph-name="greaterequal" unicode="&#x2265;" horiz-adv-x="1366" 
d="M123 313h1120v-313h-1120v313zM123 1690l1120 -455v-242l-1120 -454v290l733 285l-733 285v291z" />
    <glyph glyph-name="M.1" horiz-adv-x="1957" 
d="M123 1690h440l416 -975l416 975h440v-1690h-385v879l-356 -869h-230l-356 869v-879h-385v1690z" />
    <glyph glyph-name="Q.1" horiz-adv-x="1775" 
d="M47 844q0 182 66.5 345t179.5 279t268.5 184t327.5 68q173 0 328.5 -68t267.5 -184.5t178 -279t66 -344.5q0 -300 -161.5 -530.5t-426.5 -317.5q12 0 108 -18.5t154 -18.5q49 0 93 11.5t72 27.5t49 32.5t31 27.5l9 12l121 -260q-4 -9 -13 -24.5t-42.5 -55.5t-73 -70
t-106.5 -55t-142 -25q-69 0 -134.5 16.5t-118 40t-106 47t-120 40t-138.5 16.5q-45 0 -87 -9.5t-70 -23.5t-50 -28t-32 -23l-10 -10l-93 139q6 8 16.5 20.5t43 45.5t63.5 58t72.5 45.5t75.5 20.5q-198 43 -349.5 166t-234 305.5t-82.5 397.5zM463 844q0 -78 14 -147.5
t46 -133t80 -108.5t121 -72t165 -27q111 0 195 40t132.5 110t72.5 155t24 183t-25 183.5t-74.5 155t-133 110t-191.5 40.5q-107 0 -191 -40.5t-134 -110t-75.5 -155.5t-25.5 -183z" />
    <glyph glyph-name="R.1" horiz-adv-x="1474" 
d="M123 1690h616q125 0 229.5 -32.5t183 -96t122 -164t43.5 -228.5q0 -193 -95 -324.5t-259 -185.5l221 -266q38 -47 69 -63.5t64 -16.5q24 0 47.5 7.5t35.5 15.5l11 8l111 -278q-4 -4 -11.5 -10.5t-34 -24t-56 -30.5t-77.5 -23.5t-100 -10.5q-60 0 -116.5 18.5t-94.5 45
t-67 53t-43 44.5l-13 19l-370 480h-31v-627h-385v1690zM508 1382v-448h108q61 0 111 11t93 35.5t67 69.5t24 107q0 51 -16.5 90.5t-43.5 64.5t-65.5 41t-80 22.5t-89.5 6.5h-108z" />
    <glyph glyph-name="a.1" horiz-adv-x="1290" 
d="M463 309q0 -54 50 -88.5t124 -34.5q70 0 122 38t52 85q0 46 -51.5 80.5t-122.5 34.5q-75 0 -124.5 -30.5t-49.5 -84.5zM102 279q0 146 100.5 241.5t274.5 95.5q209 0 322 -79v75q0 81 -72 131t-158 50q-84 0 -155 -15.5t-100 -31.5l-29 -15l-115 248q5 4 15.5 11
t47.5 24.5t79.5 31t112 24.5t144.5 11q83 0 163 -15t160 -50.5t140 -89t97.5 -137t37.5 -187.5v-602h-368v43q-136 -76 -307 -76q-168 0 -279 86t-111 226z" />
    <glyph glyph-name="j.1" horiz-adv-x="608" 
d="M309 1700q89 0 152 -63t63 -152t-63 -152t-152 -63t-152 63t-63 152t63 152t152 63zM123 1049h362v-1581h-362v1581z" />
    <glyph glyph-name="t.1" horiz-adv-x="608" 
d="M123 1442h362v-393h222v-277h-222v-772h-362v772h-152v277h152v393z" />
    <glyph glyph-name="u.1" horiz-adv-x="1353" 
d="M102 1049h363v-594q0 -82 52 -143.5t136 -61.5q82 0 148.5 63.5t66.5 141.5v594h363v-1049h-363v109q-149 -142 -305 -142q-61 0 -122 12t-123 41t-109.5 72t-77 111.5t-29.5 152.5v693z" />
    </font>
</defs>
</svg>
